Ивановский Торрент трекер
Яндекс.Погода
 

[Цитировать]
HUNTER

Выход / Exit / Exit - Lauf um dein Leben
Страна: Швеция
Жанр: триллер, драма
Год выпуска: 2006
Продолжительность: 01:39:57
Перевод: Одноголосый закадровый zaswer5
Cубтитры: русские (by sonnyb) Блог, датские, английские, финские, норвежские, шведские
Оригинальная аудиодорожка: шведский
Режиссер: Петер Линдмарк / Peter Lindmark
В ролях: Мадс Миккельсен, Александр Скарсгард, Самуэль Фрёлер.
Описание: Томас Скепхулт это человек, который имеет все, - он создал целое состояние с его компанией венчурного капитала, он имеет фантастический виллу, где он живет со своей семьей, которая любит его. Но все меняется, когда коллега Томаса и его партнер по компании, найден зверски убитым в своей квартире. В контракте говорится, что, когда умирает один из владельцев компании, другой получает 2 миллиона крон. На орудии убийства найдены отпечатки Томаса. Сумеет ли он доказать свою невиновность? Или не так уж он невиновен?
Доп. информация: Диск из собственной колекции.
Бонусы: Трейлер, удалённые сцены, фильмографии, интервью, клип.
Сэмпл: http://sendfile.su/1150222
Тип релиза: DVD9 (Custom)
Контейнер: DVD-Video
Видео: PAL 16:9 (720x576) VBR Auto Pan&Scan
Аудио: Russian (Dolby AC3, 192 Kbps, 2 ch)
Аудио 2: Svenska (Dolby AC3, 192 Kbps, 2 ch)
Аудио 3: Svenska (Dolby AC3, 448 Kbps, 6 ch)
Формат субтитров: prerendered (DVD/IDX+SUB)

DVDInfo

Size: 7.20 Gb ( 7 550 596 KBytes ) - DVD-9
Enabled regions: 1, 2, 3, 4, 5, 6, 7, 8
VTS_01 :
Play Length: 00:00:20+00:01:29+00:01:12+00:03:13
Video: PAL 16:9 (720x576) VBR, Auto Pan&Scan
Audio:
Svenska (Dolby AC3, 2 ch)
VTS_02 :
Play Length: 00:26:28
Video: PAL 16:9 (720x576) VBR, Auto Pan&Scan
Audio:
Svenska (Dolby AC3, 2 ch)
VTS_03 :
Play Length: 01:39:57
Video: PAL 16:9 (720x576) VBR, Auto Pan&Scan
Audio:
Russian (Dolby AC3, 2 ch)
Svenska (Dolby AC3, 2 ch)
Svenska (Dolby AC3, 6 ch)
Subtitles:
Russian
Dansk
English
Norsk
Suomi
Svenska
Not specified
VTS_04 :
Play Length: 00:15:14
Video: PAL 16:9 (720x576) VBR, Auto Pan&Scan
Audio:
Svenska (Dolby AC3, 2 ch)
Menu Video:
PAL 16:9 (720x576) VBR
Auto Pan&Scan
Menu Audio:
Not specified (Dolby AC3, 2 ch)
Menu Subtitles:
Not specified
Menu English Language Unit :
Root Menu
Subpicture Menu
Chapter (PTT) Menu

MediaInfo

General
Complete name : K:\Exit_2006\VIDEO_TS\VTS_03_1.VOB
Format : MPEG-PS
File size : 1 024 MiB
Duration : 21mn 41s
Overall bit rate mode : Variable
Overall bit rate : 6 601 Kbps
Video
ID : 224 (0xE0)
Format : MPEG Video
Format version : Version 2
Format profile : Main@Main
Format settings, BVOP : Yes
Format settings, Matrix : Custom
Format settings, GOP : M=3, N=12
Duration : 21mn 41s
Bit rate mode : Variable
Bit rate : 5 638 Kbps
Maximum bit rate : 8 500 Kbps
Width : 720 pixels
Height : 576 pixels
Display aspect ratio : 16:9
Frame rate : 25.000 fps
Standard : PAL
Color space : YUV
Chroma subsampling : 4:2:0
Bit depth : 8 bits
Scan type : Interlaced
Scan order : Top Field First
Compression mode : Lossy
Bits/(Pixel*Frame) : 0.544
Stream size : 875 MiB (85%)
Audio #1
ID : 189 (0xBD)-128 (0x80)
Format : AC-3
Format/Info : Audio Coding 3
Mode extension : CM (complete main)
Format settings, Endianness : Big
Muxing mode : DVD-Video
Duration : 21mn 41s
Bit rate mode : Constant
Bit rate : 192 Kbps
Channel(s) : 2 channels
Channel positions : Front: L R
Sampling rate : 48.0 KHz
Bit depth : 16 bits
Compression mode : Lossy
Delay relative to video : -80ms
Stream size : 29.8 MiB (3%)
Audio #2
ID : 189 (0xBD)-129 (0x81)
Format : AC-3
Format/Info : Audio Coding 3
Mode extension : CM (complete main)
Format settings, Endianness : Big
Muxing mode : DVD-Video
Duration : 21mn 41s
Bit rate mode : Constant
Bit rate : 192 Kbps
Channel(s) : 2 channels
Channel positions : Front: L R
Sampling rate : 48.0 KHz
Bit depth : 16 bits
Compression mode : Lossy
Delay relative to video : -80ms
Stream size : 29.8 MiB (3%)
Audio #3
ID : 189 (0xBD)-130 (0x82)
Format : AC-3
Format/Info : Audio Coding 3
Mode extension : CM (complete main)
Format settings, Endianness : Big
Muxing mode : DVD-Video
Duration : 21mn 41s
Bit rate mode : Constant
Bit rate : 448 Kbps
Channel(s) : 6 channels
Channel positions : Front: L C R, Side: L R, LFE
Sampling rate : 48.0 KHz
Bit depth : 16 bits
Compression mode : Lossy
Delay relative to video : -80ms
Stream size : 69.5 MiB (7%)
Text #1
ID : 189 (0xBD)-32 (0x20)
Format : RLE
Format/Info : Run-length encoding
Muxing mode : DVD-Video
Text #2
ID : 189 (0xBD)-33 (0x21)
Format : RLE
Format/Info : Run-length encoding
Muxing mode : DVD-Video
Text #3
ID : 189 (0xBD)-34 (0x22)
Format : RLE
Format/Info : Run-length encoding
Muxing mode : DVD-Video
Text #4
ID : 189 (0xBD)-35 (0x23)
Format : RLE
Format/Info : Run-length encoding
Muxing mode : DVD-Video
Text #5
ID : 189 (0xBD)-36 (0x24)
Format : RLE
Format/Info : Run-length encoding
Muxing mode : DVD-Video
Text #6
ID : 189 (0xBD)-38 (0x26)
Format : RLE
Format/Info : Run-length encoding
Muxing mode : DVD-Video
Menu

Скриншоты меню

Скриншоты



Показать сообщения:    

Текущее время: 13-Дек 18:45

Часовой пояс: UTC ± 0


Вы не можете начинать темы
Вы не можете отвечать на сообщения
Вы не можете редактировать свои сообщения
Вы не можете удалять свои сообщения
Вы не можете голосовать в опросах
Вы не можете прикреплять файлы к сообщениям
Вы не можете скачивать файлы

!ВНИМАНИЕ!
Сайт не предоставляет электронные версии произведений, а занимается лишь коллекционированием и каталогизацией ссылок, присылаемых и публикуемых на форуме нашими читателями. Если вы являетесь правообладателем какого-либо представленного материала и не желаете, чтобы ссылка на него находилась в нашем каталоге, свяжитесь с нами, и мы незамедлительно удалим ее. Файлы для обмена на трекере предоставлены пользователями сайта, и администрация не несет ответственности за их содержание. Просьба не заливать файлы, защищенные авторскими правами, а также файлы нелегального содержания!