Ивановский Торрент трекер
Яндекс.Погода
 

[Цитировать]
HUNTER

Выход Дракона / Enter the Dragon Год выхода: 1973
Выпущено: Гонконг, США / Concord Productions Inc.
Жанр: боевик, триллер, драма, криминал
Продолжительность: 01:42:33
Перевод 1: Профессиональный (дублированный)
Перевод 2: Авторский (одноголосый, закадровый) [Л.Володарский]
Перевод 3: Авторский (одноголосый, закадровый) [В.Горчаков]
Перевод 4: Авторский (одноголосый, закадровый) [Ю.Живов]
Перевод 5: Авторский (одноголосый, закадровый) [А.Михалёв]

Навигация по главам: Есть
Режиссер: Роберт Клауз
В ролях: Брюс Ли, Джон Сэксон, Кьень Ши, Ана Капри, Анджела Мао, Джим Келли, Роберт Уолл, Боло Йенг, Бетти Чюн, Джефри Уикс
О фильме: События переносят нас на остров, превращенный в крепость главарем боевиков, открывшим там школу боевых искусств, которая является лишь ширмой, маскирующей контрабандный бизнес. В эту цитадель проникает герой Брюса Ли и становится участником жестокого турнира

Инфо: * Бюджет фильма в размере $850 тыс. был превзойдён почти в 106 раз!
Качество: BDRip [720p] [Remastered] [Исх. 1080p BluRay DTS x264-PublicHD]
Формат: MKV
Видео кодек: H.264
Аудио кодек: MP3
Видео: 1280x534 (2.40:1), MPEG4 AVC (x264) ~ 2592 kbps, 0.158 bit/pixel
Аудио 1: 48 kHz, MPEG Layer 3, 2/0 (L,R) ch, 128.00 kbps avg [DUB]
Аудио 2: 48 kHz, MPEG Layer 3, 2/0 (L,R) ch, 128.00 kbps avg [Л.Володарский]
Аудио 3: 48 kHz, MPEG Layer 3, 2/0 (L,R) ch, 128.00 kbps avg [В.Горчаков]
Аудио 4: 48 kHz, MPEG Layer 3, 2/0 (L,R) ch, 128.00 kbps avg [Ю.Живов]
Аудио 5: 48 kHz, MPEG Layer 3, 2/0 (L,R) ch, 128.00 kbps avg [А.Михалёв]

MI

E:\Выход Дракона.1973.Remastered 720p. [DUB] + 4x[AVO].mkv
General
Unique ID : 198933136512148835378183427154955224801 (0x95A920E25BDE595999066525EECC46E1)
Complete name : E:\Выход Дракона.1973.Remastered 720p. [DUB] + 4x[AVO].mkv
Format : Matroska
Format version : Version 2
File size : 2.32 GiB
Duration : 1h 42mn
Overall bit rate mode : Variable
Overall bit rate : 3 233 Kbps
Encoded date : UTC 2013-06-18 20:39:30
Writing application : mkvmerge v4.2.0 ('No Talking') сборка от Jul 28 2010 18:38:23
Writing library : libebml v1.0.0 + libmatroska v1.0.0
Video #1
ID : 1
Format : AVC
Format/Info : Advanced Video Codec
Format profile : High@L4.1
Format settings, CABAC : Yes
Format settings, ReFrames : 3 frames
Muxing mode : Header stripping
Codec ID : V_MPEG4/ISO/AVC
Duration : 1h 42mn
Bit rate mode : Variable
Bit rate : 2 592 Kbps
Maximum bit rate : 62.5 Mbps
Width : 1 280 pixels
Height : 534 pixels
Display aspect ratio : 2.40:1
Frame rate mode : Constant
Frame rate : 23.976 fps
Color space : YUV
Chroma subsampling : 4:2:0
Bit depth : 8 bits
Scan type : Progressive
Bits/(Pixel*Frame) : 0.158
Stream size : 1.81 GiB (78%)
Writing library : x264 core 129 r2245 bc13772
Encoding settings : cabac=1 / ref=3 / deblock=1:-2:-2 / analyse=0x3:0x113 / me=hex / subme=7 / psy=1 / psy_rd=1.00:0.25 / mixed_ref=1 / me_range=16 / chroma_me=1 / trellis=1 / 8x8dct=1 / cqm=0 / deadzone=6,6 / fast_pskip=1 / chroma_qp_offset=-4 / threads=12 / lookahead_threads=2 / sliced_threads=0 / nr=0 / decimate=0 / interlaced=0 / bluray_compat=0 / constrained_intra=0 / bframes=3 / b_pyramid=0 / b_adapt=1 / b_bias=0 / direct=1 / weightb=1 / open_gop=0 / weightp=2 / keyint=240 / keyint_min=24 / scenecut=40 / intra_refresh=0 / rc_lookahead=40 / rc=2pass / mbtree=1 / bitrate=2592 / ratetol=1.0 / qcomp=0.80 / qpmin=0 / qpmax=69 / qpstep=4 / cplxblur=20.0 / qblur=0.5 / vbv_maxrate=62500 / vbv_bufsize=62500 / nal_hrd=vbr / ip_ratio=1.10 / aq=1:0.50
Default : Yes
Forced : No
Audio #2
ID : 2
Format : MPEG Audio
Format version : Version 1
Format profile : Layer 3
Muxing mode : Header stripping
Codec ID : A_MPEG/L3
Codec ID/Hint : MP3
Duration : 1h 42mn
Bit rate mode : Constant
Bit rate : 128 Kbps
Channel(s) : 2 channels
Sampling rate : 48.0 KHz
Compression mode : Lossy
Stream size : 93.9 MiB (4%)
Title : DUB
Writing library : LAME3.98r
Encoding settings : -m s -V 4 -q 2 -lowpass 17 -b 128
Language : Russian
Default : Yes
Forced : No
Audio #3
ID : 3
Format : MPEG Audio
Format version : Version 1
Format profile : Layer 3
Muxing mode : Header stripping
Codec ID : A_MPEG/L3
Codec ID/Hint : MP3
Duration : 1h 42mn
Bit rate mode : Constant
Bit rate : 128 Kbps
Channel(s) : 2 channels
Sampling rate : 48.0 KHz
Compression mode : Lossy
Stream size : 93.9 MiB (4%)
Title : Volodarskiy
Writing library : LAME3.98r
Encoding settings : -m s -V 4 -q 2 -lowpass 17 -b 128
Language : Russian
Default : No
Forced : No
Audio #4
ID : 4
Format : MPEG Audio
Format version : Version 1
Format profile : Layer 3
Muxing mode : Header stripping
Codec ID : A_MPEG/L3
Codec ID/Hint : MP3
Duration : 1h 42mn
Bit rate mode : Constant
Bit rate : 128 Kbps
Channel(s) : 2 channels
Sampling rate : 48.0 KHz
Compression mode : Lossy
Stream size : 93.9 MiB (4%)
Title : Gorchakov
Writing library : LAME3.98r
Encoding settings : -m s -V 4 -q 2 -lowpass 17 -b 128
Language : Russian
Default : No
Forced : No
Audio #5
ID : 5
Format : MPEG Audio
Format version : Version 1
Format profile : Layer 3
Muxing mode : Header stripping
Codec ID : A_MPEG/L3
Codec ID/Hint : MP3
Duration : 1h 42mn
Bit rate mode : Constant
Bit rate : 128 Kbps
Channel(s) : 2 channels
Sampling rate : 48.0 KHz
Compression mode : Lossy
Stream size : 93.9 MiB (4%)
Title : Jyvov
Writing library : LAME3.98r
Encoding settings : -m s -V 4 -q 2 -lowpass 17 -b 128
Language : Russian
Default : No
Forced : No
Audio #6
ID : 6
Format : MPEG Audio
Format version : Version 1
Format profile : Layer 3
Muxing mode : Header stripping
Codec ID : A_MPEG/L3
Codec ID/Hint : MP3
Duration : 1h 42mn
Bit rate mode : Constant
Bit rate : 128 Kbps
Channel(s) : 2 channels
Sampling rate : 48.0 KHz
Compression mode : Lossy
Stream size : 93.9 MiB (4%)
Title : Mihalev
Writing library : LAME3.98r
Encoding settings : -m s -V 4 -q 2 -lowpass 17 -b 128
Language : Russian
Default : No
Forced : No

Скриншоты



Показать сообщения:    

Текущее время: 13-Дек 05:46

Часовой пояс: UTC ± 0


Вы не можете начинать темы
Вы не можете отвечать на сообщения
Вы не можете редактировать свои сообщения
Вы не можете удалять свои сообщения
Вы не можете голосовать в опросах
Вы не можете прикреплять файлы к сообщениям
Вы не можете скачивать файлы

!ВНИМАНИЕ!
Сайт не предоставляет электронные версии произведений, а занимается лишь коллекционированием и каталогизацией ссылок, присылаемых и публикуемых на форуме нашими читателями. Если вы являетесь правообладателем какого-либо представленного материала и не желаете, чтобы ссылка на него находилась в нашем каталоге, свяжитесь с нами, и мы незамедлительно удалим ее. Файлы для обмена на трекере предоставлены пользователями сайта, и администрация не несет ответственности за их содержание. Просьба не заливать файлы, защищенные авторскими правами, а также файлы нелегального содержания!