Важное объявление!
У Нас Все раздачи мультитрекерные, при нуле пиров в релизах, можете смело вставать на закачку!
 
Автор Сообщение

HUNTER

Стаж:
4 года 10 месяцев
Сообщений:
65462

Репутация: 101

[+] [-]
Вне форума [Профиль] [ЛС]

Высшее образование / Higher Learning
Страна: США
Студия: Columbia Pictures Corporation
Жанр: драма
Год выпуска: 1995
Продолжительность: 02:08:35
Перевод: Профессиональный (двухголосый закадровый) НТВ+
Cубтитры: английские
Оригинальная аудиодорожка: английский
Режиссер: Джон Синглтон / John Singleton
В ролях: Омар Эппс, Кристи Суонсон, Майкл Рапапорт, Дженнифер Коннелли, Айс Кьюб, Джейсон Уайлз, Тайра Бэнкс, Коул Хаузер, Лоренс Фишбёрн, Бриджит Уилсон, Гвинет Пэлтроу
Описание: Молодёжь из разных стран и разных социальных групп вынуждена взаимодействовать на территории колумбийского университета. У всех есть свои собственные проблемы, которые они хотят решить. Это финансовая независимость, сексуальные домогательства, личная безопасность и различные сомнения. Расизм - главная проблема городка.

Sample
Тип релиза: WEB-DL 720p
Контейнер: MKV
Видео: MPEG4 AVC Video, H264, 16:9, 1280x718, 23.976 fps, 4020 kbps
Аудио: Russian (AC3, 2 ch, 192 kbps, 16 bits, 48.0 KHz) - DVO HTB+
Аудио 2: English (AC3, 6 ch, 448 kbps, 16 bits, 48.0 KHz) - оригинал
Формат субтитров: softsub (SRT)

MediaInfo

General
Unique ID : 198968310535573847294060719568006611862 (0x95AFE718F3410142BB0189219F2B0396)
Complete name : E:\1\Высшее образование 1995 WEB-DL 720p.mkv
Format : Matroska
Format version : Version 4 / Version 2
File size : 4.27 GiB
Duration : 2h 8mn
Overall bit rate : 4 755 Kbps
Encoded date : UTC 2014-07-06 05:50:27
Writing application : mkvmerge v6.1.0 ('Old Devil') built on Mar 2 2013 14:32:37
Writing library : libebml v1.3.0 + libmatroska v1.4.0
Video
ID : 1
Format : AVC
Format/Info : Advanced Video Codec
Format profile : High@L3.1
Format settings, CABAC : No
Format settings, ReFrames : 2 frames
Codec ID : V_MPEG4/ISO/AVC
Duration : 2h 8mn
Bit rate : 4 020 Kbps
Width : 1 280 pixels
Height : 718 pixels
Display aspect ratio : 16:9
Frame rate mode : Constant
Frame rate : 23.976 fps
Color space : YUV
Chroma subsampling : 4:2:0
Bit depth : 8 bits
Scan type : Progressive
Bits/(Pixel*Frame) : 0.182
Stream size : 3.61 GiB (85%)
Language : English
Default : Yes
Forced : No
Color primaries : BT.709
Transfer characteristics : BT.709
Matrix coefficients : BT.709
Audio #1
ID : 2
Format : AC-3
Format/Info : Audio Coding 3
Mode extension : CM (complete main)
Format settings, Endianness : Big
Codec ID : A_AC3
Duration : 2h 8mn
Bit rate mode : Constant
Bit rate : 192 Kbps
Channel count : 2 channels
Channel positions : Front: L R
Sampling rate : 48.0 KHz
Bit depth : 16 bits
Compression mode : Lossy
Stream size : 177 MiB (4%)
Title : HTB+
Language : Russian
Default : Yes
Forced : No
Audio #2
ID : 3
Format : AC-3
Format/Info : Audio Coding 3
Mode extension : CM (complete main)
Format settings, Endianness : Big
Codec ID : A_AC3
Duration : 2h 8mn
Bit rate mode : Constant
Bit rate : 448 Kbps
Channel count : 6 channels
Channel positions : Front: L C R, Side: L R, LFE
Sampling rate : 48.0 KHz
Bit depth : 16 bits
Compression mode : Lossy
Stream size : 412 MiB (9%)
Language : English
Default : No
Forced : No
Text
ID : 4
Format : UTF-8
Codec ID : S_TEXT/UTF8
Codec ID/Info : UTF-8 Plain Text
Language : English
Default : No
Forced : No
Menu
00:00:00.000 : en:Start
00:02:40.000 : en:Incoming Freshman class
00:07:36.000 : en:Roommates
00:13:51.000 : en:Taryn meets Kristen
00:17:48.000 : en:Political Science 101
00:24:11.000 : en:Moving out
00:27:48.000 : en:Fun & games
00:30:56.000 : en:Kristen & Billy
00:39:56.000 : en:Fudge's library
00:41:30.000 : en:Remy meets Scott
00:44:01.000 : en:Semester assignment
00:54:46.000 : en:Miss Deja
00:56:31.000 : en:Remy's new family
01:06:46.000 : en:"No means no."
01:07:38.000 : en:Skinhead attack
01:13:40.000 : en:Guns
01:14:56.000 : en:Two lovers
01:23:53.000 : en:Pulling a gun
01:30:40.000 : en:"Information is power."
01:35:56.000 : en:Fighting Supremacists
01:40:42.000 : en:Remy enters the race war
01:43:41.000 : en:The Peace Fest
01:47:31.000 : en:"Shoot Remy, Shoot!"
01:51:21.000 : en:On the stairwell
01:52:59.000 : en:Standoff
01:57:58.000 : en:Malik's future
02:00:21.000 : en:"This is all my fault."
02:03:43.000 : en:UNLEARN

Скриншоты


_________________
Показать сообщения:    

Текущее время: Сегодня 19:58

Часовой пояс: GMT



Вы не можете начинать темы
Вы не можете отвечать на сообщения
Вы не можете редактировать свои сообщения
Вы не можете удалять свои сообщения
Вы не можете голосовать в опросах
Вы не можете прикреплять файлы к сообщениям
Вы не можете скачивать файлы