Важное объявление!
У Нас Все раздачи мультитрекерные, при нуле пиров в релизах, можете смело вставать на закачку!
 
Автор Сообщение

HUNTER

Стаж:
4 года 10 месяцев
Сообщений:
65561

Репутация: 101

[+] [-]
Вне форума [Профиль] [ЛС]

Высоцкий. Спасибо, что живой

Жанр: драма, биография
Год выпуска: 2011
Продолжительность: 02:12:08-Перевод: Не требуется
Cубтитры: нет
Оригинальная аудиодорожка: русский-Режиссер: Пётр Буслов
В ролях: Оксана Акиньшина, Сергей Безруков, Андрей Смоляков, Иван Ургант, Максим Леонидов, Андрей Панин, Владимир Ильин, Дмитрий Астрахан, Анна Ардова, Владимир Меньшов-Описание: Действие фильма разворачивается в 1979 году, когда на одном из концертов Высоцкому становится плохо с сердцем. Он переживает клиническую смерть.-- | imdb | kinopoisk | Сэмпл--Доп. информация: Главы (чаптеры): как на Blu-ray-Тип релиза: BDRip 720p
Контейнер: MKV
Видео: 5840 kb/s, 1280x544, 23.976 fps, x.264
Аудио: AC3, 640 kb/s, 5.1, 48 kHz, 16 bits--

log

---[NoImage] x264 [info]: ---[NoImage] x264 [info]: profile High, level 4.1
---[NoImage]
---[NoImage] x264 [info]: frame I:1536 Avg QP:18.08 size:106417
---[NoImage] x264 [info]: frame P:40481 Avg QP:19.55 size: 52103
---[NoImage] x264 [info]: frame B:148090 Avg QP:21.67 size: 23714
---[NoImage] x264 [info]: consecutive B-frames: 1.9% 2.5% 7.6% 20.9% 16.5% 37.0% 7.7% 1.3% 2.9% 1.7%
---[NoImage] x264 [info]: mb I I16..4: 6.7% 77.3% 16.0%
---[NoImage] x264 [info]: mb P I16..4: 1.7% 21.3% 1.8% P16..4: 28.0% 32.5% 8.3% 3.1% 0.2% skip: 3.0%
---[NoImage] x264 [info]: mb B I16..4: 0.2% 4.8% 0.2% B16..8: 38.8% 20.9% 3.7% direct: 9.1% skip:22.4% L0:42.8% L1:43.5% BI:13.7%
---[NoImage] x264 [info]: 8x8 transform intra:87.6% inter:60.3%
---[NoImage] x264 [info]: direct mvs spatial:97.9% temporal:2.1%
---[NoImage] x264 [info]: coded y,uvDC,uvAC intra: 90.9% 83.9% 57.6% inter: 41.7% 38.9% 9.6%
---[NoImage] x264 [info]: i16 v,h,dc,p: 35% 17% 4% 45%
---[NoImage] x264 [info]: i8 v,h,dc,ddl,ddr,vr,hd,vl,hu: 8% 7% 9% 10% 15% 14% 14% 12% 13%
---[NoImage] x264 [info]: i4 v,h,dc,ddl,ddr,vr,hd,vl,hu: 9% 8% 5% 9% 16% 15% 14% 11% 13%
---[NoImage] x264 [info]: i8c dc,h,v,p: 41% 21% 18% 20%
---[NoImage] x264 [info]: Weighted P-Frames: Y:3.5% UV:1.9%
---[NoImage] x264 [info]: ref P L0: 43.9% 12.1% 18.4% 6.5% 5.3% 3.5% 3.1% 1.7% 1.6% 1.3% 1.3% 1.1% 0.1% 0.0%
---[NoImage] x264 [info]: ref B L0: 73.7% 12.0% 5.4% 2.8% 1.9% 1.4% 1.1% 0.7% 0.6% 0.4% 0.2%
---[NoImage] x264 [info]: ref B L1: 92.2% 7.8%
---[NoImage] x264 [info]: kb/s:5836.20
---[NoImage] encoded 190107 frames, 5836.20 kb/s

MediaInfo

Общее
Полное имя : Vystsky.2011.O.BDRip.720p.IRONCLUB.mkv
Формат : Matroska
Версия формата : Version 2
Размер файла : 5,98 Гбайт
Продолжительность : 2 ч. 12 м.
Общий поток : 6478 Кбит/сек
Название фильма : ..:IRONCLUB:..
Дата кодирования : UTC 2012-01-20 22:17:48
Программа кодирования : mkvmerge v5.2.0 ('I can't explain') built on Dec 18 2011 18:12:03
Библиотека кодирования : libebml v1.2.3 + libmatroska v1.3.0
Видео
Идентификатор : 1
Формат : AVC
Формат/Информация : Advanced Video Codec
Профиль формата : High@L4.1
Параметр CABAC формата : Да
Параметр ReFrames формата : 12 кадров
Идентификатор кодека : V_MPEG4/ISO/AVC
Продолжительность : 2 ч. 12 м.
Битрейт : 5840 Кбит/сек
Ширина : 1280 пикселей
Высота : 544 пикселя
Соотношение сторон : 2,35:1
Частота кадров : 23,976 кадра/сек
Цветовое пространство : YUV
Субдискретизация насыщенности : 4:2:0
Битовая глубина : 8 бит
Тип развёртки : Прогрессивная
Бит/(Пиксели*Кадры) : 0.350
Размер потока : 5,27 Гбайт (88%)
Заголовок : ..:IRONCLUB:..
Библиотека кодирования : x264 core 116 r2074 2641b9e
Настройки программы : cabac=1 / ref=12 / deblock=1:-3:-3 / analyse=0x3:0x133 / me=umh / subme=11 / psy=1 / psy_rd=0.98:0.05 / mixed_ref=1 / me_range=32 / chroma_me=1 / trellis=2 / 8x8dct=1 / cqm=0 / deadzone=21,11 / fast_pskip=0 / chroma_qp_offset=-3 / threads=12 / sliced_threads=0 / nr=0 / decimate=1 / interlaced=0 / bluray_compat=0 / constrained_intra=0 / bframes=9 / b_pyramid=2 / b_adapt=2 / b_bias=0 / direct=3 / weightb=1 / open_gop=0 / weightp=2 / keyint=250 / keyint_min=23 / scenecut=40 / intra_refresh=0 / rc_lookahead=40 / rc=2pass / mbtree=1 / bitrate=5840 / ratetol=1.0 / qcomp=0.60 / qpmin=0 / qpmax=69 / qpstep=4 / cplxblur=20.0 / qblur=0.5 / vbv_maxrate=50000 / vbv_bufsize=62500 / nal_hrd=none / ip_ratio=1.40 / aq=1:1.00
Язык : Russian
Default : Да
Forced : Нет
Аудио
Идентификатор : 2
Формат : AC-3
Формат/Информация : Audio Coding 3
Расширение режима : CM (complete main)
Идентификатор кодека : A_AC3
Продолжительность : 2 ч. 12 м.
Вид битрейта : Постоянный
Битрейт : 640 Кбит/сек
Каналы : 6 каналов
Расположение каналов : Front: L C R, Side: L R, LFE
Частота : 48,0 КГц
Битовая глубина : 16 бит
Метод сжатия : С потерями
Размер потока : 605 Мбайт (10%)
Язык : Russian
Default : Да
Forced : Нет
Меню
00:00:00.000 : en:00:00:00.000
00:04:04.828 : en:00:04:04.828
00:13:58.171 : en:00:13:58.171
00:24:55.160 : en:00:24:55.160
00:35:06.980 : en:00:35:06.980
00:44:29.792 : en:00:44:29.792
01:00:30.961 : en:01:00:30.961
01:21:00.647 : en:01:21:00.647
01:32:47.604 : en:01:32:47.604
01:45:18.771 : en:01:45:18.771
02:03:57.680 : en:02:03:57.680
02:08:02.216 : en:02:08:02.216

Скриншоты


_________________
Показать сообщения:    

Текущее время: Сегодня 04:58

Часовой пояс: GMT



Вы не можете начинать темы
Вы не можете отвечать на сообщения
Вы не можете редактировать свои сообщения
Вы не можете удалять свои сообщения
Вы не можете голосовать в опросах
Вы не можете прикреплять файлы к сообщениям
Вы не можете скачивать файлы