Высоцкий. Спасибо, что живой (Петр Буслов) [2011, драма, биография, BDRip 1080p] :: Ивановский Торрент трекер
Важное объявление!
У Нас Все раздачи мультитрекерные, при нуле пиров в релизах, можете смело вставать на закачку!
 
Автор Сообщение

HUNTER

Стаж:
4 года 11 месяцев
Сообщений:
66045

Репутация: 101

[+] [-]
Вне форума [Профиль] [ЛС]

Высоцкий. Спасибо, что живой«Два часа настоящей жизни»-
Страна: Россия
Жанр: драма, биография
Год выпуска: 2011
Продолжительность: 02:12:09
Режиссер: Петр Буслов
В ролях: Оксана Акиньшина (Таня), Андрей Смоляков (Виктор Михайлович Бехтеев), Максим Леонидов (Паша), Андрей Панин (Анатолий Нефёдов), Владимир Ильин (полковник КГБ из Москвы), Иван Ургант (Сева Кулагин), Дмитрий Астрахан (Леонид), Сергей Безруков (Юра), Сергей Шакуров (Семён Владимирович Высоцкий), Алла Покровская (Нина Максимовна Высоцкая), Шухрат Иргашев, Анна Ардова (директор Дома культуры)
Описание: Действие фильма разворачивается в 1979 году, когда на одном из концертов Высоцкому становится плохо с сердцем. Он переживает клиническую смерть.

-Источник: HQFans
Качество: BDRip 1080p (by HQFans)
Контейнер: MKV
Видео: 1920x816, AVC, 23,976 fps, 15 515 kbps
Аудио: русский / DTS / 5.1 / 48 kHz / 1 536 kbps / 24 bit
Навигация по главам: 12 шт.

[url=http://www. СПАМ vs. Rip HQFans[/url]
Sample

Media Info

General
Unique ID : 216261812459458486547832810058781910778 (0xA2B28292439ADD07BA383BE4577D66FA)
Complete name : Высоцкий. Спасибо, что живой [2011.BDRip.1080p]-HQFans.mkv
Format : Matroska
Format version : Version 2
File size : 15.7 GiB
Duration : 2h 12mn
Overall bit rate : 17.0 Mbps
Movie name : Высоцкий. Спасибо, что живой [2011, BDRip/1080p] || ZUNE & PatRiOt88@HQFans
Encoded date : UTC 2012-01-24 04:00:44
Writing application : mkvmerge v5.2.0 ('I can't explain') built on Dec 18 2011 18:12:03
Writing library : libebml v1.2.3 libmatroska v1.3.0
Attachment : Yes
Video
ID : 1
Format : AVC
Format/Info : Advanced Video Codec
Format profile : High@L4.1
Format settings, CABAC : Yes
Format settings, ReFrames : 5 frames
Codec ID : V_MPEG4/ISO/AVC
Duration : 2h 12mn
Bit rate : 15.5 Mbps
Width : 1 920 pixels
Height : 816 pixels
Display aspect ratio : 2.35:1
Frame rate : 23.976 fps
Color space : YUV
Chroma subsampling : 4:2:0
Bit depth : 8 bits
Scan type : Progressive
Bits/(Pixel*Frame) : 0.413
Stream size : 14.0 GiB (89%)
Title : Высоцкий. Спасибо, что живой [2011, BDRip/1080p] || ZUNE & PatRiOt88@HQFans
Writing library : x264 core 120 r2146 bcd41db
Encoding settings : cabac=1 / ref=5 / deblock=1:-3:-3 / analyse=0x3:0x113 / me=umh / subme=10 / psy=1 / psy_rd=0.95:0.00 / mixed_ref=1 / me_range=48 / chroma_me=1 / trellis=2 / 8x8dct=1 / cqm=0 / deadzone=21,11 / fast_pskip=0 / chroma_qp_offset=-2 / threads=12 / sliced_threads=0 / nr=0 / decimate=0 / interlaced=0 / bluray_compat=0 / constrained_intra=0 / bframes=9 / b_pyramid=2 / b_adapt=2 / b_bias=0 / direct=3 / weightb=1 / open_gop=0 / weightp=2 / keyint=230 / keyint_min=23 / scenecut=40 / intra_refresh=0 / rc_lookahead=40 / rc=2pass / mbtree=0 / bitrate=15531 / ratetol=1.0 / qcomp=0.55 / qpmin=0 / qpmax=69 / qpstep=4 / cplxblur=20.0 / qblur=0.5 / vbv_maxrate=40000 / vbv_bufsize=30000 / nal_hrd=none / ip_ratio=1.45 / pb_ratio=1.35 / aq=1:1.00 / zones=5879,5980,b=2/12234,14016,b=1.7/19346,19411,b=1.5/22477,22579,b=1.5/151332,151488,b=1.7
Language : English
Color primaries : BT.709-5, BT.1361, IEC 61966-2-4, SMPTE RP177
Transfer characteristics : BT.709-5, BT.1361
Matrix coefficients : BT.709-5, BT.1361, IEC 61966-2-4 709, SMPTE RP177
Audio
ID : 2
Format : DTS
Format/Info : Digital Theater Systems
Codec ID : A_DTS
Duration : 2h 12mn
Bit rate mode : Constant
Bit rate : 1 510 Kbps
Channel(s) : 6 channels
Channel positions : Front: L C R, Side: L R, LFE
Sampling rate : 48.0 KHz
Bit depth : 24 bits
Compression mode : Lossy
Stream size : 1.39 GiB (9%)
Title : Original [DTS 5.1@1536kbps/24-bit]
Language : Russian
Menu
00:00:00.000 : en:Chapter 1
00:04:04.828 : en:Chapter 2
00:13:58.171 : en:Chapter 3
00:24:55.160 : en:Chapter 4
00:35:06.980 : en:Chapter 5
00:44:29.792 : en:Chapter 6
01:00:30.961 : en:Chapter 7
01:21:00.647 : en:Chapter 8
01:32:47.604 : en:Chapter 9
01:45:18.771 : en:Chapter 10
02:03:57.680 : en:Chapter 11
02:08:02.216 : en:Chapter 12

x264.log

-[NoImage] Import("c:\Program Files (x86)\AviSynth 2.5\plugins\BalanceBorders.avs")-[NoImage] LoadPlugin("E:\Rip\DGIndex\DGDecodeNV.dll")-[NoImage] DGMultiSource("E:\Visockiy\Visockiy.dgi")-[NoImage] Crop(0, 132, -0, -132)-[NoImage] BalanceBorders(2,2, 0,0)-[NoImage] BalanceBorders(2,2, 0,0, thresh=4, blur=10)
-[NoImage] raw [info]: 1920x816p 1:1 @ 24000/1001 fps (cfr)-[NoImage] x264 [info]: using SAR=1/1-[NoImage] x264 [info]: using cpu capabilities: MMX2 SSE2Fast SSSE3 FastShuffle SSE4.2 AVX-[NoImage] x264 [info]: profile High, level 4.1-[NoImage]-[NoImage] x264 [info]: frame I:1368 Avg QP:17.85 size:206682-[NoImage] x264 [info]: frame P:39789 Avg QP:20.24 size:103349-[NoImage] x264 [info]: frame B:148951 Avg QP:21.33 size: 73734-[NoImage] x264 [info]: consecutive B-frames: 1.8% 2.5% 7.1% 19.9% 15.3% 36.8% 7.2% 1.9% 5.5% 1.9%-[NoImage] x264 [info]: mb I I16..4: 11.8% 61.7% 26.5%-[NoImage] x264 [info]: mb P I16..4: 7.8% 29.7% 5.1% P16..4: 30.5% 17.4% 5.8% 0.0% 0.0% skip: 3.8%-[NoImage] x264 [info]: mb B I16..4: 3.3% 6.0% 1.3% B16..8: 40.5% 13.6% 3.2% direct:17.6% skip:14.5% L0:43.7% L1:41.6% BI:14.7%-[NoImage] x264 [info]: 8x8 transform intra:63.3% inter:49.6%-[NoImage] x264 [info]: direct mvs spatial:98.8% temporal:1.2%-[NoImage] x264 [info]: coded y,uvDC,uvAC intra: 90.5% 71.5% 41.0% inter: 56.4% 46.9% 15.0%-[NoImage] x264 [info]: i16 v,h,dc,p: 15% 6% 30% 49%-[NoImage] x264 [info]: i8 v,h,dc,ddl,ddr,vr,hd,vl,hu: 8% 8% 11% 9% 14% 12% 13% 11% 14%-[NoImage] x264 [info]: i4 v,h,dc,ddl,ddr,vr,hd,vl,hu: 7% 7% 9% 10% 14% 12% 14% 11% 17%-[NoImage] x264 [info]: i8c dc,h,v,p: 48% 19% 19% 14%-[NoImage] x264 [info]: Weighted P-Frames: Y:2.6% UV:1.4%-[NoImage] x264 [info]: ref P L0: 48.7% 12.5% 20.7% 10.3% 7.4% 0.5% 0.0%-[NoImage] x264 [info]: ref B L0: 75.4% 18.3% 5.2% 1.1%-[NoImage] x264 [info]: ref B L1: 89.4% 10.6%-[NoImage] x264 [info]: kb/s:15515.15-[NoImage] encoded 190108 frames, 5.83 fps, 15515.15 kb/s

_________________
Показать сообщения:    

Текущее время: Сегодня 14:09

Часовой пояс: GMT



Вы не можете начинать темы
Вы не можете отвечать на сообщения
Вы не можете редактировать свои сообщения
Вы не можете удалять свои сообщения
Вы не можете голосовать в опросах
Вы не можете прикреплять файлы к сообщениям
Вы не можете скачивать файлы