Важное объявление!
У Нас Все раздачи мультитрекерные, при нуле пиров в релизах, можете смело вставать на закачку!
Статистика раздачи
Размер:     |    Зарегистрирован:     |    Скачан:     |   
Нет
 
     
 
 
Автор Сообщение

HUNTER

Стаж:
5 лет
Сообщений:
68401

Репутация: 101

[+] [-]
Вне форума [Профиль] [ЛС]

-Высокий блондин в черном ботинке / Follow That Guy with the One Black Shoe
Страна: Франция
Жанр: Комедия, детектив
Год выпуска: 1972
Продолжительность: 01:29:32-Перевод #1: Профессиональный (двухголосый, закадровый), Союз-Видео
Перевод #2: Профессиональный (полное дублирование), СССР**
Оригинальная аудиодорожка: французский
Cубтитры: английские
Режиссер: Ив Робер / Yves Robert
В ролях: Пьер Ришар, Бернар Блие, Жан Рошфор, Мирей Дарк, Колетт Кастель, Жан Об, Робер Кастель, Жан Содрэ, Роже Качча, Морис Барье
Описание: Рассеянного скрипача-виртуоза Франсуа Перрена принимают за секретного суперагента. Высокий блондин оказывается крепким орешком. Он с легкостью избегает всех опасностей, даже не подозревая о них.-
Сэмпл: скачать-Релиз от -
Автор рипа: Elheym
Качество: BDRip 720p (источник: / Blu-Ray Remux / 1080p)
Контейнер: MKV
Видео: 1280x772 (1,658:1), 24 fps, MPEG-4 AVC, ~8179 kbps avg, 0.345 bit/pixel
Аудио #1: Русский: АС3, 2.0, 48 kHz, ~192 Кбит/с | Профессиональный (двухголосый, закадровый), Союз-Видео |
Аудио #2: Русский: АС3, 2.0, 48 kHz, ~192 Кбит/с | Профессиональный (полное дублирование), СССР** |
Аудио #3: Украинский: АС3, 2.0, 48 kHz, ~192 Кбит/с | Профессиональный (многоголосый, закадровый), К1 |
Аудио #4: Украинский: АС3, 2.0, 48 kHz, ~192 Кбит/с | Профессиональный (двухголосый, закадровый), 2+2 |
Аудио #5: Французский: DTS, 2.0, 48 kHz, ~768 Кбит/с | Оригинал |
Субтитры: Английские (Полные)
Главы: Присутствуют, сохранены оригинальные
Размер: 6.08 GB
Цитата:
Цитата:

** - Основной перевод - Русский Дубляж (времен СССР). На места, где не было перевода в дубляже, наложены друхголосые вставки.
MediaInfo
Уникальный идентификатор : 233981210180850359831505647888762500288 (0xB0072454499E8415AD379299291974C0)
Полное имя : Follow.That.Guy.with.the.One.Black.Shoe.1972.720p.BluRay.2xRus.2xUkr.Fre.-HQCLUB.mkv
Формат : Matroska
Версия формата : Version 2
Размер файла : 6,08 Гбайт
Продолжительность : 1 ч. 29 м.
Общий поток : 9715 Кбит/сек
Дата кодирования : UTC 2014-07-14 08:48:45
Программа кодирования : mkvmerge v5.2.0 ('I can't explain') built on Dec 18 2011 18:12:03
Библиотека кодирования : libebml v1.2.3 + libmatroska v1.3.0
Видео
Идентификатор : 1
Формат : AVC
Формат/Информация : Advanced Video Codec
Профиль формата : High@L4.1
Параметр CABAC формата : Да
Параметр ReFrames формата : 8 кадров
Идентификатор кодека : V_MPEG4/ISO/AVC
Продолжительность : 1 ч. 29 м.
Битрейт : 8179 Кбит/сек
Ширина : 1280 пикселей
Высота : 772 пикселя
Соотношение сторон : 1,658
Режим частоты кадров : Постоянный
Частота кадров : 24,000 кадра/сек
Цветовое пространство : YUV
Субдискретизация насыщенности : 4:2:0
Битовая глубина : 8 бит
Тип развёртки : Прогрессивная
Бит/(Пиксели*Кадры) : 0.345
Размер потока : 4,99 Гбайт (82%)
Заголовок : Высокий блондин в черном ботинке / Follow That Guy with the One Black Shoe / Le grand blond avec une chaussure noire (1972) BDRip 720p by HQCLUB [Elheym]
Библиотека кодирования : x264 core 142 r2431 ac76440
Настройки программы : cabac=1 / ref=8 / deblock=1:-3:-2 / analyse=0x3:0x113 / me=umh / subme=11 / psy=1 / psy_rd=1.08:0.00 / mixed_ref=1 / me_range=32 / chroma_me=1 / trellis=2 / 8x8dct=1 / cqm=0 / deadzone=21,11 / fast_pskip=1 / chroma_qp_offset=-4 / threads=6 / lookahead_threads=1 / sliced_threads=0 / nr=0 / decimate=1 / interlaced=0 / bluray_compat=0 / constrained_intra=0 / bframes=13 / b_pyramid=2 / b_adapt=2 / b_bias=0 / direct=3 / weightb=1 / open_gop=0 / weightp=2 / keyint=240 / keyint_min=24 / scenecut=40 / intra_refresh=0 / rc_lookahead=40 / rc=2pass / mbtree=0 / bitrate=8179 / ratetol=1.0 / qcomp=0.60 / qpmin=10 / qpmax=69 / qpstep=4 / cplxblur=20.0 / qblur=0.5 / vbv_maxrate=50000 / vbv_bufsize=62500 / nal_hrd=none / filler=0 / ip_ratio=1.40 / pb_ratio=1.30 / aq=1:0.90
Язык : French
Default : Да
Forced : Нет
Аудио #1
Идентификатор : 2
Формат : AC-3
Формат/Информация : Audio Coding 3
Расширение режима : CM (complete main)
Параметр Endianness формата : Big
Идентификатор кодека : A_AC3
Продолжительность : 1 ч. 29 м.
Вид битрейта : Постоянный
Битрейт : 192 Кбит/сек
Каналы : 2 канала
Расположение каналов : Front: L R
Частота : 48,0 КГц
Битовая глубина : 16 бит
Метод сжатия : С потерями
Размер потока : 123 Мбайт (2%)
Заголовок : АС3 2.0 @ ~192 kbps - DVO, Inis
Язык : Russian
Default : Нет
Forced : Нет
Аудио #2
Идентификатор : 3
Формат : AC-3
Формат/Информация : Audio Coding 3
Расширение режима : CM (complete main)
Параметр Endianness формата : Big
Идентификатор кодека : A_AC3
Продолжительность : 1 ч. 29 м.
Вид битрейта : Постоянный
Битрейт : 192 Кбит/сек
Каналы : 2 канала
Расположение каналов : Front: L R
Частота : 48,0 КГц
Битовая глубина : 16 бит
Метод сжатия : С потерями
Размер потока : 123 Мбайт (2%)
Заголовок : АС3 2.0 @ ~192 kbps - Dub USSR
Язык : Russian
Default : Нет
Forced : Нет
Аудио #3
Идентификатор : 4
Формат : AC-3
Формат/Информация : Audio Coding 3
Расширение режима : CM (complete main)
Параметр Endianness формата : Big
Идентификатор кодека : A_AC3
Продолжительность : 1 ч. 29 м.
Вид битрейта : Постоянный
Битрейт : 192 Кбит/сек
Каналы : 2 канала
Расположение каналов : Front: L R
Частота : 48,0 КГц
Битовая глубина : 16 бит
Метод сжатия : С потерями
Размер потока : 123 Мбайт (2%)
Заголовок : АС3 2.0 @ ~192 kbps - MVO, K1
Язык : Ukrainian
Default : Нет
Forced : Нет
Аудио #4
Идентификатор : 5
Формат : AC-3
Формат/Информация : Audio Coding 3
Расширение режима : CM (complete main)
Параметр Endianness формата : Big
Идентификатор кодека : A_AC3
Продолжительность : 1 ч. 29 м.
Вид битрейта : Постоянный
Битрейт : 192 Кбит/сек
Каналы : 2 канала
Расположение каналов : Front: L R
Частота : 48,0 КГц
Битовая глубина : 16 бит
Метод сжатия : С потерями
Размер потока : 123 Мбайт (2%)
Заголовок : АС3 2.0 @ ~192 kbps - DVO, 2+2
Язык : Ukrainian
Default : Нет
Forced : Нет
Аудио #5
Идентификатор : 6
Формат : DTS
Формат/Информация : Digital Theater Systems
Режим : 16
Параметр Endianness формата : Big
Идентификатор кодека : A_DTS
Продолжительность : 1 ч. 29 м.
Вид битрейта : Постоянный
Битрейт : 768 Кбит/сек
Каналы : 2 канала
Расположение каналов : Front: L R
Частота : 48,0 КГц
Битовая глубина : 16 бит
Метод сжатия : С потерями
Размер потока : 492 Мбайт (8%)
Заголовок : DTS 2.0 @ ~768 kbps - Original
Язык : French
Default : Нет
Forced : Нет
Текст
Идентификатор : 7
Формат : UTF-8
Идентификатор кодека : S_TEXT/UTF8
Идентификатор кодека/Информация : UTF-8 Plain Text
Заголовок : Full
Язык : English
Default : Нет
Forced : Нет
Меню
00:00:00.000 : :Chapter 01
00:07:22.082 : :Chapter 02
00:15:14.916 : :Chapter 03
00:23:29.333 : :Chapter 04
00:31:04.875 : :Chapter 05
00:38:40.791 : :Chapter 06
00:46:13.416 : :Chapter 07
00:54:13.457 : :Chapter 08
01:01:27.333 : :Chapter 09
01:07:56.083 : :Chapter 10
01:15:23.291 : :Chapter 11
01:22:48.291 : :Chapter 12
01:29:32.291 : :Chapter 13
x264 log
x264 [info]: frame I:851 Avg QP:16.22 size:127473
x264 [info]: frame P:25310 Avg QP:17.74 size: 66170
x264 [info]: frame B:102780 Avg QP:19.74 size: 36066
x264 [info]: consecutive B-frames: 1.6% 2.5% 7.0% 11.2% 11.9% 46.5% 6.7% 1.5% 4.3% 0.6% 2.3% 2.4% 1.1% 0.5%
x264 [info]: ref P L0: 39.7% 10.5% 18.0% 9.1% 7.1% 6.1% 5.1% 3.9% 0.4% 0.0%
x264 [info]: ref B L0: 66.4% 13.9% 8.4% 4.6% 3.8% 2.1% 0.8%
x264 [info]: ref B L1: 89.9% 10.1%
Скриншоты

_________________
Показать сообщения:    

Текущее время: Сегодня 06:10

Часовой пояс: GMT



Вы не можете начинать темы
Вы не можете отвечать на сообщения
Вы не можете редактировать свои сообщения
Вы не можете удалять свои сообщения
Вы не можете голосовать в опросах
Вы не можете прикреплять файлы к сообщениям
Вы не можете скачивать файлы