Важное объявление!
У Нас Все раздачи мультитрекерные, при нуле пиров в релизах, можете смело вставать на закачку!
Статистика раздачи
Размер:     |    Зарегистрирован:     |    Скачан:     |   
Нет
 
     
 
 
Автор Сообщение

димитри37

Стаж:
4 года 4 месяца
Сообщений:
1236

Репутация: 127

[+] [-]
Вне форума [Профиль] [ЛС]

Выкуп / Ransom
Страна: США
Жанр: триллер, криминал
Год выпуска: 1996
Продолжительность: 02:01:27
Перевод: Профессиональный (дублированный) Невафильм
Cубтитры: нет
Оригинальная аудиодорожка: английский
Режиссер: Рон Ховард / Ron Howard
В ролях: Мэл Гибсон, Рене Руссо, Броли Нолти, Гэри Синиз, Делрой Линдо, Лили Тейлор, Лив Шрайбер, Донни Уолберг, Эван Хэндлер, Нэнси Тикотин и др.
Описание: У преуспевающего владельца авиакомпании похищают сына и требуют выкуп в 2 миллиона долларов. Гибсон по настоянию жены сообщает о похищении в ФБР, и зритель видит детально выписанную работу специалистов в контакте с отцом.
Выясняется, что в прошлом у Гибсона было черное пятно - он дал в свое время взятку и избежал тюрьмы, куда попал другой человек. Фильм имеет довольно неожиданную развязку.

Качество видео: BDRip Источник
Формат видео: AVI
Видео: 704x384 (1.83:1), 23.976 fps, XviD build 65 ~1322 kbps avg, 0.20 bit/pixel
Аудио: 48 kHz, AC3 Dolby Digital, 2/0 (L,R) ch, ~192 kbps
Аудио 2: 48 kHz, AC3 Dolby Digital, 2/0 (L,R) ch, ~192 kbps

MediaInfo

General
Complete name : C:\Users\Александр\Desktop\Кино\Выкуп.avi
Format : AVI
Format/Info : Audio Video Interleave
File size : 1.46 GiB
Duration : 2h 1mn
Overall bit rate : 1 721 Kbps
Movie name : Vikup_1996_BDRip_Menen
Director : Menen
Writing application : VirtualDubMod 1.5.10.2 (build 2540/release)
Writing library : VirtualDubMod build 2540/release
Video
ID : 0
Format : MPEG-4 Visual
Format profile : Advanced Simple@L5
Format settings, BVOP : 1
Format settings, QPel : No
Format settings, GMC : No warppoints
Format settings, Matrix : Custom
Codec ID : XVID
Codec ID/Hint : XviD
Duration : 2h 1mn
Bit rate : 1 323 Kbps
Width : 704 pixels
Height : 384 pixels
Display aspect ratio : 1.85:1
Frame rate : 23.976 fps
Color space : YUV
Chroma subsampling : 4:2:0
Bit depth : 8 bits
Scan type : Progressive
Compression mode : Lossy
Bits/(Pixel*Frame) : 0.204
Stream size : 1.12 GiB (77%)
Writing library : XviD 65
Audio #1
ID : 1
Format : AC-3
Format/Info : Audio Coding 3
Mode extension : CM (complete main)
Format settings, Endianness : Big
Codec ID : 2000
Duration : 2h 1mn
Bit rate mode : Constant
Bit rate : 192 Kbps
Channel(s) : 2 channels
Channel positions : Front: L R
Sampling rate : 48.0 KHz
Bit depth : 16 bits
Compression mode : Lossy
Stream size : 167 MiB (11%)
Alignment : Split accross interleaves
Interleave, duration : 42 ms (1.00 video frame)
Interleave, preload duration : 500 ms
Audio #2
ID : 2
Format : AC-3
Format/Info : Audio Coding 3
Mode extension : CM (complete main)
Format settings, Endianness : Big
Codec ID : 2000
Duration : 2h 1mn
Bit rate mode : Constant
Bit rate : 192 Kbps
Channel(s) : 2 channels
Channel positions : Front: L R
Sampling rate : 48.0 KHz
Bit depth : 16 bits
Compression mode : Lossy
Stream size : 167 MiB (11%)
Alignment : Split accross interleaves
Interleave, duration : 42 ms (1.00 video frame)
Interleave, preload duration : 500 ms

Скриншоты

-
Показать сообщения:    

Текущее время: Сегодня 12:44

Часовой пояс: GMT



Вы не можете начинать темы
Вы не можете отвечать на сообщения
Вы не можете редактировать свои сообщения
Вы не можете удалять свои сообщения
Вы не можете голосовать в опросах
Вы не можете прикреплять файлы к сообщениям
Вы не можете скачивать файлы