Важное объявление!
У Нас Все раздачи мультитрекерные, при нуле пиров в релизах, можете смело вставать на закачку!
 
Автор Сообщение

Savaris

Стаж:
6 лет
Сообщений:
156

Репутация: 40

[+] [-]
Вне форума [Профиль] [ЛС]

Выжившие Среди Демонов 2 / Devil Survivor 2 The Animation
Страна: Япония
Год выпуска: 2013 г.
Жанр: приключения
Тип: TV
Продолжительность: ТВ (13 эп.), 25 мин.
Режиссер: Киси Сэйдзи
Студия: Bridge
Описание:
Сюжет начинается с того, что главный герой вместе с подругой Дайчи и другом Ио возвращаются с пробного экзамена. Им одновременно на электронную почту приходят письма от Никеи, сайта, который предупреждает своих пользователей о несчастных случаях, или их скорой смерти. В письме содержится видео, показывающее как они погибают в результате несчастного случая на метро. Сразу же после этого сцена начинает происходить в реальности, но школьники спасаются просто кликая по аватарке сайта. Как только они запускают приложения на своих мобильных телефонах, появляются демоны, видимо, желая убить их. Главные герои разделываются с непрошеными демонами и становятся благодаря этому Вызывателями, что позволяет им вызывать демонов, чтобы те сражались на их стороне после заключения с ними контракта.
Качество: HDTVRip
Тип релиза: Без хардсаба
Формат видео: MP4
Наличие линковки: Нет
Релиз/Автор рипа: ZeroRaws
Видео: x264, 1280x720, 1876 Kbps, 23.976 fps, 8 bits
Аудио: AAC, 192 Kbps, 48.0 Hz, 2 channels
-Язык Русский (в составе контейнера) ;
-Озвучка: двухголосая, [Dark_Demon & Miori] (Семпл)

Подробные тех. данные

GeneralComplete name : F:\Для озвучки\Мои Озвучки\[Dark_Demon & Miori]_Devil Survivor 2 The Animation\[Zero-Raws] Devil Survivor 2 The Animation - 01 (MBS 1280x720 x264 AAC)_[Dark_Demon & Miori].mp4Format : MPEG-4Format profile : Base MediaCodec ID : isomFile size : 362 MiBDuration : 24mn 26sOverall bit rate mode : VariableOverall bit rate : 2 072 KbpsEncoded date : UTC 2013-04-04 17:02:10Tagged date : UTC 2013-04-04 17:02:10Copyright : Dark
VideoID : 1Format : AVCFormat/Info : Advanced Video CodecFormat profile : High@L3.1Format settings, CABAC : YesFormat settings, ReFrames : 4 framesCodec ID : avc1Codec ID/Info : Advanced Video CodingDuration : 24mn 26sBit rate : 1 876 KbpsMaximum bit rate : 15.2 MbpsWidth : 1 280 pixelsHeight : 720 pixelsDisplay aspect ratio : 16:9Frame rate mode : ConstantFrame rate : 23.976 fpsColor space : YUVChroma subsampling : 4:2:0Bit depth : 8 bitsScan type : ProgressiveBits/(Pixel*Frame) : 0.085Stream size : 328 MiB (91%)Writing library : x264 core 128 r2216+698 b3c1019Encoding settings : cabac=1 / ref=3 / deblock=1:0:0 / analyse=0x3:0x113 / me=hex / subme=7 / psy=1 /fade_compensate=0.00 / psy_rd=1.00:0.00 / mixed_ref=1 / me_range=16 / chroma_me=1 / trellis=1 / 8x8dct=1 / cqm=0 /deadzone=21,11 / fast_pskip=1 / chroma_qp_offset=-2 / threads=12 / lookahead_threads=2 / sliced_threads=0 / nr=0 /decimate=1 / interlaced=0 / bluray_compat=0 / constrained_intra=0 / fgo=0 / bframes=3 / b_pyramid=2 / b_adapt=1 /b_bias=0 / direct=1 / weightb=1 / open_gop=0 / weightp=2 / keyint=250 / keyint_min=23 / scenecut=40 / intra_refresh=0 /rc_lookahead=40 / rc=crf / mbtree=1 / crf=19.5000 / qcomp=0.60 / qpmin=0 / qpmax=69 / qpstep=4 / ip_ratio=1.40 / aq=1:1.00Language : JapaneseEncoded date : UTC 2013-04-04 20:33:43Tagged date : UTC 2013-04-04 17:02:14
AudioID : 2Format : AACFormat/Info : Advanced Audio CodecFormat profile : LCCodec ID : 40Duration : 24mn 26sBit rate mode : VariableBit rate : 192 KbpsMaximum bit rate : 198 KbpsChannel(s) : 2 channelsChannel positions : Front: L RSampling rate : 48.0 KHzCompression mode : LossyDelay relative to video : 83msStream size : 33.6 MiB (9%)Language : RussianEncoded date : UTC 2013-04-04 17:02:11Tagged date : UTC 2013-04-04 17:02:14

Список эпизодов

01. Печальное воскресенье
02. Переломный понедельник ч.1
03. Переломный понедельник ч.2
04. Переломный понедельник ч.3
05. Tuesday of Turbulence - I
06. Tuesday of Turbulence - II
07. Wednesday of Transformations - I
08. Wednesday of Transformations - II
09. Thursday of Shock
10. Friday of Farewells

Скриншоты

-

_________________

Показать сообщения:    

Текущее время: Сегодня 10:40

Часовой пояс: GMT



Вы не можете начинать темы
Вы не можете отвечать на сообщения
Вы не можете редактировать свои сообщения
Вы не можете удалять свои сообщения
Вы не можете голосовать в опросах
Вы не можете прикреплять файлы к сообщениям
Вы не можете скачивать файлы
Наши партнеры: интернет магазин Ивановского трикотажа textilla.ru