Важное объявление!
У Нас Все раздачи мультитрекерные, при нуле пиров в релизах, можете смело вставать на закачку!
 
Автор Сообщение

HUNTER

Стаж:
4 года 8 месяцев
Сообщений:
61998

Репутация: 101

[+] [-]
Вне форума [Профиль] [ЛС]

Выбор / The Choice«Let your heart decide»
Страна: США
Жанр: драма
Год выпуска: 2016
Продолжительность: 01:46:24
-
Перевод: Профессиональный (дублированный)
Cубтитры: нет
Оригинальная аудиодорожка: нет
-
Режиссер: Росс Кац / Ross Katz
В ролях: Бенджамин Уокер, Тереза Палмер, Мэгги Грэйс, Александра Даддарио, Том Уилкинсон, Том Уэллинг, Джесси Бойд, Брэд Джеймс, Нори Виктория, Анна Энгер
-
Описание: Тревис Паркер жил в своё удовольствие. Он убеждённый холостяк. Охота, рыбалка, занятия спортом - вот всё, что его интересовало. А что касается женщин, то недостатка их внимания Паркер не испытывал. Он умудрялся не пропускать разные вечеринки и успевать заводить недолгосрочные романы. Такая жизнь вполне устраивала Тревиса Паркера и казалась ему удивительно прекрасной. Без обязательств и серьёзных отношений. Привычный расклад его жизни изменился после встречи с Габи. Новая соседка вызвала в душе холостяка смятение чувств. Но вот незадача, похоже, девушка не спешит проявлять свои ответные чувства, и теперь уже сердцееду Паркеру придётся завоёвывать расположение Габи...
[img]https://rating.kinopoisk.ru/843209.gif[/img]
>>> Собственная запись со спутника Eutelsat 36A/36B (36°E) | TV1000 Premium HD (эфир 24.09.2016г.)
Тип релиза: HDTV 1080i
Контейнер: MKV
Видео: MPEG-4 AVC / PAL 16:9 / 1920x1080 (1,78:1) / 8620 kbps / 25,000 fps / 0.083 bit/pixel / High@L4
Аудио 1: Russian / Dolby Digital Audio / 2.0 Ch / 48 kHz / 384 kbps / 16 bit | DUB
Аудио 2: Russian / MPEG-2 Audio / 2.0 Ch / 48 kHz / 192 kbps / 16 bit | DUB

MediaInfo

Код:
Общее
Уникальный идентификатор                 : 243003782540541194275982380120419693976 (0xB6D0D37DDF7B98C3ACEC71F762B17598)
Полное имя                               : D:\The Choice.2016.HDTV.1080i\The Choice.2016.HDTV.1080i.mkv
Формат                                   : Matroska
Версия формата                           : Version 4 / Version 2
Размер файла                             : 6,84 Гбайт
Продолжительность                        : 1 ч. 46 м.
Общий поток                              : 9200 Кбит/сек
Название фильма                          : Release for RuTracker © flaSI-I
Дата кодирования                         : UTC 2016-09-24 20:34:51
Программа кодирования                    : mkvmerge v9.4.2 ('So High') 64bit
Библиотека кодирования                   : libebml v1.3.4 + libmatroska v1.4.5
Видео
Идентификатор                            : 1
Формат                                   : AVC
Формат/Информация                        : Advanced Video Codec
Профиль формата                          : High@L4
Параметр CABAC формата                   : Да
Параметр ReFrames формата                : 4 кадра
Идентификатор кодека                     : V_MPEG4/ISO/AVC
Продолжительность                        : 1 ч. 46 м.
Битрейт                                  : 8620 Кбит/сек
Ширина                                   : 1920 пикселей
Высота                                   : 1080 пикселей
Соотношение сторон                       : 16:9
Режим частоты кадров                     : Переменный
Частота кадров                           : 50,000 кадров/сек
Частота кадров в оригинале               : 25,000 кадров/сек
Стандарт вещания                         : Component
Цветовое пространство                    : YUV
Субдискретизация насыщенности            : 4:2:0
Битовая глубина                          : 8 бит
Тип развёртки                            : Чересстрочная
Метод сохранения типа развёртки          : Раздельные поля
Порядок развёртки                        : Верхнее поле первое
Бит/(Пиксели*Кадры)                      : 0.083
Размер потока                            : 6,41 Гбайт (94%)
Язык                                     : English
Default                                  : Да
Forced                                   : Нет
Цветовой диапазон                        : Limited
Основные цвета                           : BT.709
Характеристики трансфера                 : BT.709
Коэффициенты матрицы                     : BT.709
Аудио #1
Идентификатор                            : 2
Формат                                   : AC-3
Формат/Информация                        : Audio Coding 3
Расширение режима                        : CM (complete main)
Параметр Endianness формата              : Big
Идентификатор кодека                     : A_AC3
Продолжительность                        : 1 ч. 46 м.
Вид битрейта                             : Постоянный
Битрейт                                  : 384 Кбит/сек
Каналы                                   : 2 канала
Расположение каналов                     : Front: L R
Частота                                  : 48,0 КГц
Частота кадров                           : 31,250 кадров/сек (1536 spf)
Метод сжатия                             : С потерями
Размер потока                            : 292 Мбайт (4%)
Заголовок                                : DUB
Язык                                     : Russian
Default                                  : Да
Forced                                   : Нет
Аудио #2
Идентификатор                            : 3
Формат                                   : MPEG Audio
Версия формата                           : Version 1
Профиль формата                          : Layer 2
Идентификатор кодека                     : A_MPEG/L2
Идентификатор кодека/Подсказка           : MP2
Продолжительность                        : 1 ч. 46 м.
Вид битрейта                             : Постоянный
Битрейт                                  : 192 Кбит/сек
Каналы                                   : 2 канала
Частота                                  : 48,0 КГц
Частота кадров                           : 41,667 кадра/сек (1152 spf)
Метод сжатия                             : С потерями
Размер потока                            : 146 Мбайт (2%)
Заголовок                                : DUB
Язык                                     : Russian
Default                                  : Нет
Forced                                   : Нет

Скриншоты

-


_________________
Показать сообщения:    

Текущее время: Сегодня 20:54

Часовой пояс: GMT



Вы не можете начинать темы
Вы не можете отвечать на сообщения
Вы не можете редактировать свои сообщения
Вы не можете удалять свои сообщения
Вы не можете голосовать в опросах
Вы не можете прикреплять файлы к сообщениям
Вы не можете скачивать файлы
Наши партнеры: интернет магазин Ивановского трикотажа textilla.ru