Важное объявление!
У Нас Все раздачи мультитрекерные, при нуле пиров в релизах, можете смело вставать на закачку!
 
Автор Сообщение

HUNTER

Стаж:
4 года 10 месяцев
Сообщений:
65548

Репутация: 101

[+] [-]
Вне форума [Профиль] [ЛС]


Вундеркинды
The Prodigies
-

  • Год производства: 2011

  • Страна: Канада, Франция, Великобритания, Индия, Бельгия, Люксембург

  • Жанр: мультфильм, фантастика

  • Продолжительность: 01:35:12

  • Перевод: Одноголосый закадровый |den904|

  • Субтитры: Отсутствуют-
  • Режиссер: Антуан Шаррейрон / Antoine Charreyron
    -
  • Описание: Мультфильм рассказывает о судьбе пятерых нью-йоркских тинейджеров со сверхспособностями в не самый удачный период переходного возраста. Нападки со стороны окружающих заставляют их не на шутку озлобиться и начать методично сравнивать город с землей. Но есть и шестой, который, вроде бы, может спасти нас от несвоевременного Апокалипсиса.
    -
  • Качество видео: BDRip 1080p

  • Формат видео: mkv

  • Видео кодек: H264

  • Аудио кодек: AC3|DTS

  • Видео: 1920x1040 (1.85:1), 23.976 fps, 9 786 Kbps, 0.204 bit/pixel

  • Аудио#1: 48 kHz, AC3 6 ch ~448 kbps avg - VO

  • Аудио#2: 48 kHz, DTS 6 ch ~1510 kbps avg - original-
  • Автор рипа: falco
-

Доп. информация

Скриншоты

Скриншоты 1920x1040

MediaInfo

Код: copyText_writeLink('this.parentNode.parentNode.nextSibling.nextSibling');
General
Unique ID : 253223993125812102130906381293379228724 (0xBE812AC70DF4EC7CB1861AADD7759434)
Complete name : D:\Торенты\The.Prodigies.2011.BDRip.1080p.falco.mkv
Format : Matroska
Format version : Version 4 / Version 2
File size : 8.30 GiB
Duration : 1h 35mn
Overall bit rate mode : Variable
Overall bit rate : 12.5 Mbps
Encoded date : UTC 2013-09-15 17:41:44
Writing application : mkvmerge v6.3.0 ('You can't stop me!') built on Jun 28 2013 20:09:41
Writing library : libebml v1.3.0 + libmatroska v1.4.0
Attachment : Yes
Video
ID : 1
Format : AVC
Format/Info : Advanced Video Codec
Format profile : [url=mailto:Main@L4.1]Main@L4.1[/url]
Format settings, CABAC : Yes
Format settings, ReFrames : 9 frames
Codec ID : V_MPEG4/ISO/AVC
Duration : 1h 35mn
Bit rate : 9 786 Kbps
Width : 1 920 pixels
Height : 1 040 pixels
Display aspect ratio : 1.85:1
Frame rate : 23.976 fps
Color space : YUV
Chroma subsampling : 4:2:0
Bit depth : 8 bits
Scan type : Progressive
Bits/(Pixel*Frame) : 0.204
Stream size : 6.80 GiB (82%)
Writing library : x264 core 130 r2273 b3065e6
Encoding settings : cabac=1 / ref=9 / deblock=1:-3:-3 / analyse=0x1:0x131 / me=umh / subme=10 / psy=1 / psy_rd=1.00:0.00 / mixed_ref=1 / me_range=16 / chroma_me=1 / trellis=2 / 8x8dct=0 / cqm=0 / deadzone=21,11 / fast_pskip=0 / chroma_qp_offset=-4 / threads=6 / lookahead_threads=1 / sliced_threads=0 / nr=0 / decimate=0 / interlaced=0 / bluray_compat=0 / constrained_intra=0 / bframes=8 / b_pyramid=2 / b_adapt=0 / b_bias=0 / direct=3 / weightb=1 / open_gop=0 / weightp=2 / keyint=250 / keyint_min=23 / scenecut=40 / intra_refresh=0 / rc_lookahead=50 / rc=2pass / mbtree=1 / bitrate=9786 / ratetol=1.0 / qcomp=0.60 / qpmin=0 / qpmax=69 / qpstep=4 / cplxblur=20.0 / qblur=0.5 / ip_ratio=1.40 / aq=1:1.00
Default : Yes
Forced : No
Audio #1
ID : 2
Format : AC-3
Format/Info : Audio Coding 3
Mode extension : CM (complete main)
Format settings, Endianness : Big
Codec ID : A_AC3
Duration : 1h 35mn
Bit rate mode : Constant
Bit rate : 448 Kbps
Channel(s) : 6 channels
Channel positions : Front: L C R, Side: L R, LFE
Sampling rate : 48.0 KHz
Bit depth : 16 bits
Compression mode : Lossy
Stream size : 305 MiB (4%)
Title : den904
Language : Russian
Default : Yes
Forced : No
Audio #2
ID : 3
Format : DTS
Format/Info : Digital Theater Systems
Format profile : MA / Core
Codec ID : A_DTS
Duration : 1h 35mn
Bit rate mode : Variable
Bit rate : 1 561 Kbps / 1 510 Kbps
Channel(s) : 6 channels
Channel positions : Front: L C R, Side: L R, LFE
Sampling rate : 48.0 KHz
Bit depth : 16 bits
Compression mode : Lossless / Lossy
Language : English
Default : No
Forced : No
Menu
00:00:00.000 : :Chapter 01
00:05:13.313 : :Chapter 02
00:09:31.320 : :Chapter 03
00:13:51.664 : :Chapter 04
00:19:31.211 : :Chapter 05
00:27:41.826 : :Chapter 06
00:35:51.023 : :Chapter 07
00:42:36.178 : :Chapter 08
00:51:32.547 : :Chapter 09
00:56:18.333 : :Chapter 10
01:01:20.093 : :Chapter 11
01:05:28.049 : :Chapter 12
01:12:11.410 : :Chapter 13
01:16:37.384 : :Chapter 14
01:24:41.034 : :Chapter 15
01:28:15.623 : :Chapter 16

_________________
Показать сообщения:    

Текущее время: Сегодня 06:00

Часовой пояс: GMT



Вы не можете начинать темы
Вы не можете отвечать на сообщения
Вы не можете редактировать свои сообщения
Вы не можете удалять свои сообщения
Вы не можете голосовать в опросах
Вы не можете прикреплять файлы к сообщениям
Вы не можете скачивать файлы