Важное объявление!
У Нас Все раздачи мультитрекерные, при нуле пиров в релизах, можете смело вставать на закачку!
 
Автор Сообщение

HUNTER

Стаж:
4 года 7 месяцев
Сообщений:
61573

Репутация: 101

[+] [-]
Вне форума [Профиль] [ЛС]

Вудхаус в Изгнании / Вудхауз в изгнании / Wodehouse in Exile
Страна: Великобритания
Жанр: драма
Год выпуска: 2013
Продолжительность: 01:22:31
Перевод: Профессиональный (двухголосый закадровый) ТВ Культура
Cубтитры: нет
Оригинальная аудиодорожка: английский
Режиссер: Тим Файвелл / Tim Fywell
В ролях: Тим Пиготт-Смит, Зоэ Уонамейкер, Джулиан Райнд-Татт.
Описание: Фильм основан на реальных событиях. Во время Второй мировой войны английский писатель Пелам Гренвилл Вудхаус становится «пешкой» в крупной игре немецких и британских политиков. Несколько радиопередач, которые Вудхаус делает для немецкого радио, вызывают волну критики в его адрес со стороны соотечественников. В прессе его называют предателем…
Доп. информация: Собрано из английского HDTVRip'a и русской озвучки с SATRip'a
Сэмпл: https://yadi.sk/i/WHswHovjeL2qc
Качество видео: HDTVRip
Формат видео: MKV
Видео: AVC High@L4.1, 1280x720, 16x9, 25 fps, 3000 kbps
Аудио 1: AC3, 48KHz, 384kbps, 2channels
Аудио 2: AC3, 48KHz, 384kbps, 2channels

MediaInfo

General
Unique ID : 247485484790368845188269140851780133178 (0xBA2FF878F90050B69F81030AE476A13A)
Complete name : C:\Users\User\Desktop\Untitled2_0.mkv
Format : Matroska
Format version : Version 2
File size : 2.17 GiB
Duration : 1h 22mn
Overall bit rate : 3 770 Kbps
Encoded date : UTC 2015-01-29 18:17:04
Writing application : mkvmerge v7.0.0 ('Where We Going') 32bit built on Jun 9 2014 15:08:34
Writing library : libebml v1.3.0 + libmatroska v1.4.1
DURATION : 01:22:24.288000000
NUMBER_OF_FRAMES : 154509
NUMBER_OF_BYTES : 237325824
_STATISTICS_WRITING_APP : mkvmerge v7.0.0 ('Where We Going') 32bit built on Jun 9 2014 15:08:34
_STATISTICS_WRITING_DATE_UTC : 2015-01-29 18:17:04
_STATISTICS_TAGS : BPS DURATION NUMBER_OF_FRAMES NUMBER_OF_BYTES
Video
ID : 1
Format : AVC
Format/Info : Advanced Video Codec
Format profile : High@L4.1
Format settings, CABAC : Yes
Format settings, ReFrames : 5 frames
Codec ID : V_MPEG4/ISO/AVC
Duration : 1h 22mn
Bit rate : 3 000 Kbps
Width : 1 280 pixels
Height : 720 pixels
Display aspect ratio : 16:9
Frame rate mode : Constant
Frame rate : 25.000 fps
Color space : YUV
Chroma subsampling : 4:2:0
Bit depth : 8 bits
Scan type : Progressive
Bits/(Pixel*Frame) : 0.130
Stream size : 1.69 GiB (78%)
Writing library : x264 core 142 r2431 ac76440
Encoding settings : cabac=1 / ref=5 / deblock=1:0:0 / analyse=0x3:0x113 / me=umh / subme=8 / psy=1 / psy_rd=1.00:0.00 / mixed_ref=1 / me_range=16 / chroma_me=1 / trellis=1 / 8x8dct=1 / cqm=0 / deadzone=21,11 / fast_pskip=1 / chroma_qp_offset=-2 / threads=18 / lookahead_threads=3 / sliced_threads=0 / nr=0 / decimate=1 / interlaced=0 / bluray_compat=0 / constrained_intra=0 / bframes=3 / b_pyramid=2 / b_adapt=2 / b_bias=0 / direct=3 / weightb=1 / open_gop=0 / weightp=2 / keyint=250 / keyint_min=25 / scenecut=40 / intra_refresh=0 / rc_lookahead=50 / rc=2pass / mbtree=1 / bitrate=3000 / ratetol=1.0 / qcomp=0.60 / qpmin=0 / qpmax=69 / qpstep=4 / cplxblur=20.0 / qblur=0.5 / vbv_maxrate=62500 / vbv_bufsize=78125 / nal_hrd=none / filler=0 / ip_ratio=1.40 / aq=1:1.00
Default : Yes
Forced : No
Audio #1
ID : 2
Format : AC-3
Format/Info : Audio Coding 3
Mode extension : CM (complete main)
Format settings, Endianness : Big
Codec ID : A_AC3
Duration : 1h 22mn
Bit rate mode : Constant
Bit rate : 384 Kbps
Channel(s) : 2 channels
Channel positions : Front: L R
Sampling rate : 48.0 KHz
Bit depth : 16 bits
Compression mode : Lossy
Stream size : 227 MiB (10%)
Language : Russian
Default : Yes
Forced : No
Audio #2
ID : 3
Format : AC-3
Format/Info : Audio Coding 3
Mode extension : CM (complete main)
Format settings, Endianness : Big
Codec ID : A_AC3
Duration : 1h 22mn
Bit rate mode : Constant
Bit rate : 384 Kbps
Channel(s) : 2 channels
Channel positions : Front: L R
Sampling rate : 48.0 KHz
Bit depth : 16 bits
Compression mode : Lossy
Stream size : 227 MiB (10%)
Language : English
Default : No
Forced : No

Скриншот c названием фильма

Скриншоты







_________________
Показать сообщения:    

Текущее время: Сегодня 10:54

Часовой пояс: GMT



Вы не можете начинать темы
Вы не можете отвечать на сообщения
Вы не можете редактировать свои сообщения
Вы не можете удалять свои сообщения
Вы не можете голосовать в опросах
Вы не можете прикреплять файлы к сообщениям
Вы не можете скачивать файлы
Наши партнеры: интернет магазин Ивановского трикотажа textilla.ru