Ивановский Торрент трекер
Яндекс.Погода
 

[Цитировать]
HUNTER

Вторая мировая война - День за Днём
Год выпуска: 2005
Страна: Россия
Жанр: Документальный
Продолжительность: 96 серий~по 26 минут
Перевод: Не требуется
Русские субтитры: нет
Режиссер: Галина Ясногородская, Ольга Адрианова, Михаил Михеев
Описание: Самая полная и детальная видеоистория второй мировой войны.
60-летию Великой Победы посвящен цикл телевизионных публицистических фильмов «Вторая мировая. День за днем».
Каждая из 96 серий фильма – один месяц II-ой мировой войны.
В фильме использована уникальная хроника военных лет, в том числе, из личного архива Сталина.
Некоторые документальные съемки будут впервые представлены телезрителям.
Автор и ведущий – Виктор Правдюк
Художественный руководитель и главный режиссёр – Галина Ясногородская
Режиссёры – Ольга Адрианова, Михаил Михеев
Ведущий оператор – Антон Правдюк
Звукорежиссёр – Михаил Козлов
Техническое руководство и режиссура монтажа – Сергей Правдюк
Режиссёры монтажа – Галина Панюшкина, Константин Стафеев
качество: DVDRip
формат: AVI
Видео: Xvid, 720x480, 16:9, 2368 (kbps), 25,000 (fps)
Аудио: MP3, 128 (kbps), 44,1 (kHz), 2 (ch)
Здесь полная сборка все 96 серий, без всяких вырезов.

Список раздаваемого материала

1 Серия (Август 39-ого)
2 Серия (Сентябрь 39-ого)
3 Серия (Октябрь 39-ого)
4 Серия (Ноябрь 39-ого)
5 Серия (Декабрь 39-ого)
6 Серия (Январь 40-ого)
7 Серия (Февраль 40-ого)
8 Серия (Март 40-ого)
9 Серия (Апрель 40-ого)
10 Серия (Май 40-ого 1-9 число)
11 Серия (Май 40-ого 10-31 число)
12 Серия (Июнь 40-ого)
13 Серия (Июль 40-ого)
14 Серия (Август 40-ого)
15 Серия (Сентябрь 40-ого)
16 Серия (Октябрь 40-ого)
17 Серия (Ноябрь 40-ого)
18 Серия (Декабрь 40-ого)
19 Серия (Январь 41-ого)
20 Серия (Февраль 41-ого)
21 Серия (Март 41-ого)
22 Серия (Апрель 41-ого)
23 Серия (Май 41-ого)
24 Серия (Июнь 41-ого - 1-22 числа)
25 Серия (Июнь 41-ого - начало компании против СССР)
26 Серия (Июнь 41-ого - Первые дни войны)
27 Серия (Июль 41-ого)
28 Серия (Август 41-ого)
29 Серия (Сентябрь 41-ого)
30 Серия (Октябрь 41-ого, 1-16 числа)
31 Серия (17-31 октября 41-го)
32 Серия (ноябрь 41-го)
33 Серия (1-6 декабря 41-го)
34 серия (7-31 декабря 41-го)
35 серия (январь 42-го)
36 серия (февраль 42-го)
37 серия (март 42-го)
38 серия (апрель 42-го)
39 серия (1-8 мая 42-го)
40 серия (9-31 мая 42-го)
41 - июнь 1942
42 - июль 1942
43 - август 1942
44 - сентябрь 1942
45 - октябрь 1942
46 - 1-18 ноября 1942
47 - 19-30 ноября 1942
48 - декабрь 1942
49 - январь 1943
50 - февраль 1943
51 - март 1943
52 - апрель 1943
53 - май 1943
54 - июнь 1943
55 - июль 1943
56 - август 1943
57 - сентябрь 1943
58 - октябрь 1943
59 - ноябрь 1943
60 - декабрь 1943
61 - январь 1944
62 - февраль 1944
63 - март 1944
64 - апрель 1944
65 - май 1944
66 - 1-5 июня 1944
67 - 6 июня 1944
68 - 7-30 июня 1944
69 - июль 1944
70 - август 1944
71 - сентябрь 1944
72 - октябрь 1944
73 - ноябрь 1944
74 - декабрь 1944
75 - январь 1945
76 - февраль 1945
77 - март 1945
78 - апрель 1945
79 - 1-8 мая 1945
80 - 9-31 мая 1945
81 - июнь 1945
82 - июль 1945
83 - 1-8 августа 1945
84 - 9-31 августа 1945
85 - сентябрь 1945
86 - Уроки в багровом свете итогов
87 - Кто все-таки победил?
88 - Полководцы и технический прогресс
89 - Женщины и война
90 - Лидеры: Гитлер
91 - Лидеры: Черчилль
92 - Лидеры: Муссолини
93 - Лидеры: Сталин
94 - Лидеры: император Хирохито
95 - Лидеры: Рузвельт
96 - Реквием по одному погибшему и по каждому из них

MediaInfo

Общее
Полное имя : H:\Кино\Вторая мировая день за днем\DVD Rip\VTS_01_1.avi
Формат : AVI
Формат/Информация : Audio Video Interleave
Размер файла : 466 Мбайт
Продолжительность : 25 м.
Общий поток : 2508 Кбит/сек
Программа кодирования : MEncoder SVN-r33883(20110719-gcc4.5.2)
Библиотека кодирования : MPlayer
Видео
Идентификатор : 0
Формат : MPEG-4 Visual
Профиль формата : Advanced Simple@L5
Параметр BVOP формата : 2
Параметр QPel формата : Нет
Параметр GMC формата : Без точки перехода
Параметр матрицы формата : Default (H.263)
Идентификатор кодека : XVID
Идентификатор кодека/Подсказка : XviD
Продолжительность : 25 м.
Битрейт : 2368 Кбит/сек
Ширина : 720 пикселей
Высота : 480 пикселей
Соотношение сторон : 4:3
Соотношение сторон в оригинале : 16:9
Частота кадров : 25,000 кадров/сек
Стандарт вещания : NTSC
Цветовое пространство : YUV
Субдискретизация насыщенности : 4:2:0
Битовая глубина : 8 бит
Тип развёртки : Прогрессивная
Метод сжатия : С потерями
Бит/(Пиксели*Кадры) : 0.274
Размер потока : 440 Мбайт (94%)
Библиотека кодирования : XviD 1.2.1 (UTC 2008-12-04)
Аудио
Идентификатор : 1
Формат : MPEG Audio
Версия формата : Version 1
Профиль формата : Layer 3
Режим : Joint stereo
Расширение режима : MS Stereo
Идентификатор кодека : 55
Идентификатор кодека/Подсказка : MP3
Продолжительность : 25 м.
Вид битрейта : Постоянный
Битрейт : 128 Кбит/сек
Каналы : 2 канала
Частота : 44,1 КГц
Метод сжатия : С потерями
Задержка видео : 40 мс.
Размер потока : 23,8 Мбайт (5%)
Выравнивание : Соединение по промежуткам
Продолжительность промежутка : 26 мс. (0,65 видеокадр)
Время предзагрузки промежутка : 522 мс.
Библиотека кодирования : LAME3.98.4ЄЄЄЄЄЄЄЄЄЄ

Скриншоты

ВНИМАНИЕ! ТОРРЕНТ ПЕРЕЗАЛИТ! ДОБАВЛЕНА 25-ая - 96-ая СЕРИИ!

Внимание ! Раздача ведётся путём добавления новых серий

Внимание! Раздача ведётся путём добавления новых серий; при каждом добавлении создётся новый торрент. Серии выходят по мере изготовления рипа. Чтобы начать докачку новой серии, пользователям необходимо сделать следующее:
(1) остановить скачивание,
(2) удалить старый торрент у себя из клиента (старые серии удалять не надо),
(3) скачать новый торрент и запустить его у себя в клиенте вместо старого, при этом указать клиенту путь в старую папку куда и должно происходить скачивание новых серий.
Ваш клиент при этом должен произвести хеширование (проверку) старой папки (если не производит сам - помогите ему сделать это), и будет докачивать только те серии которых у вас ещё нет. Старые серии при этом не удаляются, а продолжают раздаваться!
Eсли вы уже удалили старые серии, то предотвратить повторную закачку старых серий можно, отжав галочку в соответсвующих местах при запуске нового торрента. По возможности, желательно не удалять старые серии как можно дольше чтобы релизёр не столько продолжал раздавать старые серии, а смог сконцентрироваться на новых.

Не забываем говорить СПАСИБО!!!

Показать сообщения:    

Текущее время: 22-Сен 00:04

Часовой пояс: UTC - 1


Вы не можете начинать темы
Вы не можете отвечать на сообщения
Вы не можете редактировать свои сообщения
Вы не можете удалять свои сообщения
Вы не можете голосовать в опросах
Вы не можете прикреплять файлы к сообщениям
Вы не можете скачивать файлы

!ВНИМАНИЕ!
Сайт не предоставляет электронные версии произведений, а занимается лишь коллекционированием и каталогизацией ссылок, присылаемых и публикуемых на форуме нашими читателями. Если вы являетесь правообладателем какого-либо представленного материала и не желаете, чтобы ссылка на него находилась в нашем каталоге, свяжитесь с нами, и мы незамедлительно удалим ее. Файлы для обмена на трекере предоставлены пользователями сайта, и администрация не несет ответственности за их содержание. Просьба не заливать файлы, защищенные авторскими правами, а также файлы нелегального содержания!