Важное объявление!
У Нас Все раздачи мультитрекерные, при нуле пиров в релизах, можете смело вставать на закачку!
Статистика раздачи
Размер:     |    Зарегистрирован:     |    Скачан:     |   
Нет
 
     
 
 
Автор Сообщение

HUNTER

Стаж:
5 лет 1 месяц
Сообщений:
68439

Репутация: 101

[+] [-]
Вне форума [Профиль] [ЛС]

Встреча с Юпитером / Horizon. Encounter with Jupiter
Дата/Год выпуска: 1980
Страна: Великобритания
Жанр: Документальный, космос
Продолжительность: 00:48:46
Перевод: Субтитры
Доп. инфо о переводе: Astra Stellari & Anna Spacedust
Формат субтитров: softsub (SRT)
Режиссер: Фишер Дилк / Fisher Dilke
Описание: Фильм рассказывает про цели миссии Вояджеров, в фильме уделено внимание истории изучения планеты Юпитер, а также устройству аппаратов Вояджер.
Доп. информация: Версия фильма для ТВ Европы
качество: VHSRip
формат: AVI
Видео: Xvid 640x480 29.97fps 849kbps
Аудио: MP3 44100Hz mono 64kbps

MediaInfo

GeneralComplete name : C:\Horizon. Encounter with Jupiter (1980)\Horizon. Encounter with Jupiter 1980.aviFormat : AVIFormat/Info : Audio Video InterleaveFile size : 323 MiBDuration : 48mn 45sOverall bit rate : 925 KbpsWriting application : VirtualDubMod 1.5.10.3 (build 2550/release)Writing library : VirtualDubMod build 2550/release
VideoID : 0Format : MPEG-4 VisualFormat profile : Advanced Simple@L4Format settings, BVOP : NoFormat settings, QPel : NoFormat settings, GMC : No warppointsFormat settings, Matrix : Default (H.263)Codec ID : XVIDCodec ID/Hint : XviDDuration : 48mn 45sBit rate : 850 KbpsWidth : 640 pixelsHeight : 480 pixelsDisplay aspect ratio : 4:3Frame rate : 29.970 fpsColor space : YUVChroma subsampling : 4:2:0Bit depth : 8 bitsScan type : ProgressiveCompression mode : LossyBits/(Pixel*Frame) : 0.092Stream size : 296 MiB (92%)
AudioID : 1Format : MPEG AudioFormat version : Version 1Format profile : Layer 3Codec ID : 55Codec ID/Hint : MP3Duration : 48mn 45sBit rate mode : ConstantBit rate : 64.0 KbpsChannel(s) : 1 channelSampling rate : 44.1 KHzCompression mode : LossyStream size : 22.3 MiB (7%)Alignment : Split accross interleavesInterleave, duration : 33 ms (1.00 video frame)Interleave, preload duratio : 500 msWriting library : LAME3.99rEncoding settings : -m m -V 4 -q 2 -lowpass 16.5 -b 64

Скриншоты


_________________
Показать сообщения:    

Текущее время: Сегодня 08:10

Часовой пояс: GMT



Вы не можете начинать темы
Вы не можете отвечать на сообщения
Вы не можете редактировать свои сообщения
Вы не можете удалять свои сообщения
Вы не можете голосовать в опросах
Вы не можете прикреплять файлы к сообщениям
Вы не можете скачивать файлы