Важное объявление!
У Нас Все раздачи мультитрекерные, при нуле пиров в релизах, можете смело вставать на закачку!
 
Автор Сообщение

HUNTER

Стаж:
4 года 10 месяцев
Сообщений:
65522

Репутация: 101

[+] [-]
Вне форума [Профиль] [ЛС]

Все собаки празднуют Рождество / An All Dogs Christmas Carol
Страна: США
Жанр: мультфильм, мюзикл, семейный
Продолжительность: 01:13:25
Год выпуска: 1998
Перевод 1: Профессиональный (дублированный) Варус-видео
Перевод 2: Профессиональный (многоголосый закадровый) Союз-Видео
Перевод 3: Профессиональный (многоголосый закадровый) НТВ+
Перевод 4: Авторский (одноголосый закадровый) Сергей Визгунов
Перевод 5: Авторский (одноголосый закадровый) Александр Кашкин (Первомайский)
Перевод 6: Украинский (многоголосый закадровый) отдельной дорогой
Оригинальная аудио-дорожка: Есть (Eng) отдельной дорогой
Русские субтитры: есть-Режиссёр: Пол Сабелла / Paul Sabella, Гэри Селваджио / Gary Selvaggio-Роли озвучивали: Эрнест Боргнайн, Дом ДеЛуис, Шина Истон, Тейлор Эмерсон, Биби Нойуэрт, Чарльз Нельсон Рейли, Стивен Уэбер, Карлос Алазраки, Бет Андерсон, Ди Брэдли Бейкер-Описание: Рождество — особый праздник, провести который лучше всего в кругу семьи и друзей. Вот и собираются Чарли, Итчи, Саша, Карфейс и прочая собачья компания, чтобы разделить на всех праздничное веселье. Все складывалось прекрасно перед началом рождественской вечеринки в кафе «Блошиный Укус».
Великолепные подарки, блестящая мишура и даже солидная сумма пожертвований для Тимми — славного щенка, которому срочно требовалась операция на больной лапке. Но ни праздник ни угощения никак не могли обрадовать Карфейса — самого ворчливого из бульдогов.
Карфейс вовсе не любит рождественских празднеств. Вернее, просто ненавидит их! Вместе со своими дружками — хулиганами он разрабатывает план срыва всеобщего торжества.
Но неожиданно, подобно рождественским ангелам, появляются Чарли и Итчи. У них есть У них есть гениальная идея по спасению Рождества. Они знают, как превратить Карфейса, врага праздников, в настоящего сказочного героя!-Релиз от: -Благодарности:
bora86bora - звук Варус-Видео и Союз-Видео
Epetuk1727 - звук А.Кашкин
SelinaAnt - звук С.Визгунов
xSlim - украинская дорога (канал ТЕТ)
Beonikol - субтитры (русские и английские) и звук MVO (НТВ+) с лицензии R5
Lexa1988-L1 - WEB-DL 1080p
xfiles - всесторонняя помощь
*Sergeant_am* - сборка, рип, синхронизация
-Семпл: http://multi-up.com/1076924-Качество: WEB-DLRip
Формат: AVI
Видео: 704x528 (4:3), 23.976 fps, XviD build 73 ~1800 kbps avg, 0.20 bit/pixel
Аудио 1: 48 kHz, AC3 Dolby Digital, 2/0 (L,R) ch, ~192.00 kbps avg (DUB) Варус-Видео
Аудио 2: 48 kHz, AC3 Dolby Digital, 2/0 (L,R) ch, ~192.00 kbps avg (MVO) Союз-Видео
Аудио 3: 48 kHz, AC3 Dolby Digital, 2/0 (L,R) ch, ~192.00 kbps avg (MVO) НТВ+
Аудио 4: 48 kHz, AC3 Dolby Digital, 2/0 (L,R) ch, ~192.00 kbps avg (AVO) Визгунов
Аудио 5: 48 kHz, AC3 Dolby Digital, 2/0 (L,R) ch, ~192.00 kbps avg (AVO) Кашкин (Первомайский)
Аудио 4: 48 kHz, AC3 Dolby Digital, 2/0 (L,R) ch, ~192.00 kbps avg (Ukr) отдельной дорожкой
Аудио 6: 48 kHz, AC3 Dolby Digital, 2/0 (L,R) ch, ~192.00 kbps avg (ENG) отдельной дорожкой
Формат субтитров: SRT (Русские, Английские)

Как добавить/удалить/поменять местами звуковую дорожку

Из за ограничений контейнера AVI, часто, звуковые дорожки к фильмам идут отдельными файлами. Но смотреть их хочется именно с этими дорожками, да еще и на бытовом плеере, который отдельных дорожек не понимает. Что делать? Прикрепить желаемую дорожку к фильму!
Многие скажут, это же сложно, нужно уметь пользоваться видеоредакторами, но это не так. Все невероятно легко!
Для начала нужно скачать программу VirtualDub 1.5.10.2
установили её, запускаем и видим вот такое окно:

Жмем File, Open video file (Файл -> открыть видеофайл...). И выбираем файл с фильмом.

Жмем Streams, stream list (Потоки -> потоки).

Жмем Add (Добавить)

И выбираем файл со звуковой дорожкой.
Теперь мы можем переместить нажу дорожку наверх (чтобы она воспроизводилась по умолчанию) кнопкой Move Up (Вверх, Вниз). Или же вообще убрать не нужную нам дорожку кнопкой Disable (Отключить). После всех действий жмем OK.

Время сохранять файл. Жмем File, Save As (Файл -> Сохранить как).

В открывшемся окне вводим имя файла. И выставляем Direct Stream Copy (Прямопотоковое копирование) в параметре Video Mode (Видеорежим). Это очень важно, т.к. если этого не сделать видео будет подвергнуто перекодированию и потеряет в качестве. Кроме того перекодирование занимает гораздо больше времени чем простое копирование потока.

Жмем сохранить и через несколько минут получаем фильм с нужной звуковой дорожкой.

Отчёт MediaInfo

Общее
Полное имя : D:\Все собаки празднуют Рождество WEB-DLRip\Все собаки празднуют Рождество WEB-DLRip.avi
Формат : AVI
Формат/Информация : Audio Video Interleave
Размер файла : 1,43 Гбайт
Продолжительность : 1 ч. 13 м.
Общий поток : 2788 Кбит/сек
Программа кодирования : VirtualDubModRus 1.5.10.2 (build 2542/release)
Библиотека кодирования : VirtualDubMod build 2542/release
Видео
Идентификатор : 0
Формат : MPEG-4 Visual
Профиль формата : Advanced Simple@L5
Параметр BVOP формата : 1
Параметр QPel формата : Нет
Параметр GMC формата : Без точки перехода
Параметр матрицы формата : Выборочная
Идентификатор кодека : DX50
Идентификатор кодека/Подсказка : DivX 5
Продолжительность : 1 ч. 13 м.
Битрейт : 1800 Кбит/сек
Ширина : 704 пикселя
Высота : 528 пикселей
Соотношение сторон : 4:3
Частота кадров : 23,976 кадра/сек
Цветовое пространство : YUV
Субдискретизация насыщенности : 4:2:0
Битовая глубина : 8 бит
Тип развёртки : Прогрессивная
Метод сжатия : С потерями
Бит/(Пиксели*Кадры) : 0.202
Размер потока : 945 Мбайт (65%)
Библиотека кодирования : XviD 73
Аудио #1
Идентификатор : 1
Формат : AC-3
Формат/Информация : Audio Coding 3
Расширение режима : CM (complete main)
Параметр Endianness формата : Big
Идентификатор кодека : 2000
Продолжительность : 1 ч. 13 м.
Вид битрейта : Постоянный
Битрейт : 192 Кбит/сек
Каналы : 2 канала
Расположение каналов : Front: L R
Частота : 48,0 КГц
Битовая глубина : 16 бит
Метод сжатия : С потерями
Размер потока : 101 Мбайт (7%)
Выравнивание : Разделение по промежуткам
Продолжительность промежутка : 42 мс. (1,00 видеокадр)
Время предзагрузки промежутка : 500 мс.
Аудио #2
Идентификатор : 2
Формат : AC-3
Формат/Информация : Audio Coding 3
Расширение режима : CM (complete main)
Параметр Endianness формата : Big
Идентификатор кодека : 2000
Продолжительность : 1 ч. 13 м.
Вид битрейта : Постоянный
Битрейт : 192 Кбит/сек
Каналы : 2 канала
Расположение каналов : Front: L R
Частота : 48,0 КГц
Битовая глубина : 16 бит
Метод сжатия : С потерями
Размер потока : 101 Мбайт (7%)
Выравнивание : Разделение по промежуткам
Продолжительность промежутка : 42 мс. (1,00 видеокадр)
Время предзагрузки промежутка : 500 мс.
Аудио #3
Идентификатор : 3
Формат : AC-3
Формат/Информация : Audio Coding 3
Расширение режима : CM (complete main)
Параметр Endianness формата : Big
Идентификатор кодека : 2000
Продолжительность : 1 ч. 13 м.
Вид битрейта : Постоянный
Битрейт : 192 Кбит/сек
Каналы : 2 канала
Расположение каналов : Front: L R
Частота : 48,0 КГц
Битовая глубина : 16 бит
Метод сжатия : С потерями
Размер потока : 101 Мбайт (7%)
Выравнивание : Разделение по промежуткам
Продолжительность промежутка : 42 мс. (1,00 видеокадр)
Время предзагрузки промежутка : 500 мс.
Аудио #4
Идентификатор : 4
Формат : AC-3
Формат/Информация : Audio Coding 3
Расширение режима : CM (complete main)
Параметр Endianness формата : Big
Идентификатор кодека : 2000
Продолжительность : 1 ч. 13 м.
Вид битрейта : Постоянный
Битрейт : 192 Кбит/сек
Каналы : 2 канала
Расположение каналов : Front: L R
Частота : 48,0 КГц
Битовая глубина : 16 бит
Метод сжатия : С потерями
Размер потока : 101 Мбайт (7%)
Выравнивание : Разделение по промежуткам
Продолжительность промежутка : 42 мс. (1,00 видеокадр)
Время предзагрузки промежутка : 500 мс.
Аудио #5
Идентификатор : 5
Формат : AC-3
Формат/Информация : Audio Coding 3
Расширение режима : CM (complete main)
Параметр Endianness формата : Big
Идентификатор кодека : 2000
Продолжительность : 1 ч. 13 м.
Вид битрейта : Постоянный
Битрейт : 192 Кбит/сек
Каналы : 2 канала
Расположение каналов : Front: L R
Частота : 48,0 КГц
Битовая глубина : 16 бит
Метод сжатия : С потерями
Размер потока : 101 Мбайт (7%)
Выравнивание : Разделение по промежуткам
Продолжительность промежутка : 42 мс. (1,00 видеокадр)
Время предзагрузки промежутка : 500 мс.

Скриншоты


_________________
Показать сообщения:    

Текущее время: Сегодня 21:57

Часовой пояс: GMT



Вы не можете начинать темы
Вы не можете отвечать на сообщения
Вы не можете редактировать свои сообщения
Вы не можете удалять свои сообщения
Вы не можете голосовать в опросах
Вы не можете прикреплять файлы к сообщениям
Вы не можете скачивать файлы