Ивановский Торрент трекер
Яндекс.Погода
 

[Цитировать]
HUNTER

Все собаки празднуют Рождество / An All Dogs Christmas Carol
Страна: США
Жанр: мультфильм, мюзикл, семейный
Продолжительность: 01:13:25
Год выпуска: 1998
Перевод 1: Профессиональный (дублированный) Варус-видео
Перевод 2: Профессиональный (многоголосый закадровый) Лицензия R5
Перевод 3: Авторский (одноголосый закадровый) Сергей Визгунов
Перевод 4: Авторский (одноголосый закадровый) Александр Кашкин Первомайский)
Оригинальная аудио-дорожка: Есть (Eng)
Русские субтитры: есть-Режиссёр: Пол Сабелла / Paul Sabella, Гэри Селваджио / Gary Selvaggio-Роли озвучивали: Эрнест Боргнайн, Дом ДеЛуис, Шина Истон, Тейлор Эмерсон, Биби Нойуэрт, Чарльз Нельсон Рейли, Стивен Уэбер, Карлос Алазраки, Бет Андерсон, Ди Брэдли Бейкер-Описание: Рождество — особый праздник, провести который лучше всего в кругу семьи и друзей. Вот и собираются Чарли, Итчи, Саша, Карфейс и прочая собачья компания, чтобы разделить на всех праздничное веселье. Все складывалось прекрасно перед началом рождественской вечеринки в кафе «Блошиный Укус».
Великолепные подарки, блестящая мишура и даже солидная сумма пожертвований для Тимми — славного щенка, которому срочно требовалась операция на больнойлапке. Но ни праздник ни угощения никак не могли обрадовать Карфейса — самого ворчливого из бульдогов.
Карфейс вовсе не любит рождественских празднеств. Вернее, просто ненавидит их! Вместе со своими дружками — хулиганами он разрабатывает план срыва всеобщего торжества.
Но неожиданно, подобно рождественским ангелам, появляются Чарли и Итчи. У них есть У них есть гениальная идея по спасению Рождества. Они знают, как превратить Карфейса, врага праздников, в настоящего сказочного героя!-Релиз от: -Благодарности:
Epetuk1727 - звук AVO (А.Кашкин)
ilgiz01 - дубляж Варус-Видео
Home Video - звук AVO (С.Визгунов)
Beonikol - субтитры (русские и английские) и звук MVO с лицензии R5
Lexa1988-L1 - WEB-DL 1080p
*Sergeant_am* - сборка, синхронизация и чистка дорог Варус-Видео и С.Визгунова
-Семпл: http://multi-up.com/1076724-Качество: WEB-DL 1080p
Формат: MKV
Видео: MPEG-4 AVC, 4:3, 1456x1076, 23,976fps
Аудио 1: 48 kHz, AC3 Dolby Digital, 2/0 (L,R) ch, ~192.00 kbps avg (DUB)
Аудио 2: 48 kHz, AC3 Dolby Digital, 2/0 (L,R) ch, ~192.00 kbps avg (MVO)
Аудио 3: 48 kHz, AC3 Dolby Digital, 2/0 (L,R) ch, ~192.00 kbps avg (AVO) Визгунов
Аудио 4: 48 kHz, AC3 Dolby Digital, 2/0 (L,R) ch, ~192.00 kbps avg (AVO) Кашкин (Первомайский)
Аудио 5: 48 kHz, AAC, 2/0 (L,R) ch, ~163 kbps avg (ENG)
Формат субтитров: SRT (Русские, Английские)

Отчёт MediaInfo

ОбщееУникальный идентификатор : 224671738829236948398009389893543944118 (0xA90633F4539A1261AD37C2E7CF225FB6)Полное имя : C:\Все собаки празднуют Рождество WEB-DL 1080p.mkvФормат : MatroskaВерсия формата : Version 2Размер файла : 2,57 ГбайтПродолжительность : 1 ч. 13 м.Общий поток : 5005 Кбит/секДата кодирования : UTC 2015-11-25 08:09:23Программа кодирования : mkvmerge v4.0.0 ('The Stars were mine') сборка от Jun 6 2010 16:18:42Библиотека кодирования : libebml v1.0.0 + libmatroska v1.0.0
ВидеоИдентификатор : 1Формат : AVCФормат/Информация : Advanced Video CodecПрофиль формата : High@L4.0Параметр CABAC формата : ДаПараметр ReFrames формата : 5 кадровИдентификатор кодека : V_MPEG4/ISO/AVCПродолжительность : 1 ч. 13 м.Ширина : 1456 пикселейВысота : 1076 пикселейСоотношение сторон : 4:3Режим частоты кадров : ПостоянныйЧастота кадров : 23,976 кадра/секЦветовое пространство : YUVСубдискретизация насыщенности : 4:2:0Битовая глубина : 8 битТип развёртки : ПрогрессивнаяЯзык : EnglishDefault : НетForced : НетОсновные цвета : BT.709Характеристики трансфера : BT.709Коэффициенты матрицы : BT.709
Аудио #1Идентификатор : 2Формат : AC-3Формат/Информация : Audio Coding 3Расширение режима : CM (complete main)Параметр Endianness формата : BigИдентификатор кодека : A_AC3Продолжительность : 1 ч. 13 м.Вид битрейта : ПостоянныйБитрейт : 192 Кбит/секКаналы : 2 каналаРасположение каналов : Front: L RЧастота : 48,0 КГцБитовая глубина : 16 битМетод сжатия : С потерямиРазмер потока : 101 Мбайт (4%)Заголовок : Профессиональный (Дублированный) Варус-ВидеоЯзык : RussianDefault : НетForced : Нет
Аудио #2Идентификатор : 3Формат : AC-3Формат/Информация : Audio Coding 3Расширение режима : CM (complete main)Параметр Endianness формата : BigИдентификатор кодека : A_AC3Продолжительность : 1 ч. 13 м.Вид битрейта : ПостоянныйБитрейт : 192 Кбит/секКаналы : 2 каналаРасположение каналов : Front: L RЧастота : 48,0 КГцБитовая глубина : 16 битМетод сжатия : С потерямиРазмер потока : 101 Мбайт (4%)Заголовок : Профессиональный (Многоголосый закадровый) с Лицензия R5Язык : RussianDefault : НетForced : Нет
Аудио #3Идентификатор : 4Формат : AC-3Формат/Информация : Audio Coding 3Расширение режима : CM (complete main)Параметр Endianness формата : BigИдентификатор кодека : A_AC3Продолжительность : 1 ч. 13 м.Вид битрейта : ПостоянныйБитрейт : 192 Кбит/секКаналы : 2 каналаРасположение каналов : Front: L RЧастота : 48,0 КГцБитовая глубина : 16 битМетод сжатия : С потерямиРазмер потока : 101 Мбайт (4%)Заголовок : Авторский (одноголосый закадровый) С.ВизгуновЯзык : RussianDefault : НетForced : Нет
Аудио #4Идентификатор : 5Формат : AC-3Формат/Информация : Audio Coding 3Расширение режима : CM (complete main)Параметр Endianness формата : BigИдентификатор кодека : A_AC3Продолжительность : 1 ч. 13 м.Вид битрейта : ПостоянныйБитрейт : 192 Кбит/секКаналы : 2 каналаРасположение каналов : Front: L RЧастота : 48,0 КГцБитовая глубина : 16 битМетод сжатия : С потерямиРазмер потока : 101 Мбайт (4%)Заголовок : Авторский (одноголосый закадровый) А.Кашкин(Первомайский)Язык : RussianDefault : НетForced : Нет
Аудио #5Идентификатор : 6Формат : AACФормат/Информация : Advanced Audio CodecПрофиль формата : LCИдентификатор кодека : A_AACПродолжительность : 1 ч. 13 м.Каналы : 2 каналаРасположение каналов : Front: L RЧастота : 48,0 КГцМетод сжатия : С потерямиЯзык : EnglishDefault : НетForced : Нет
Текст #1Идентификатор : 7Формат : UTF-8Идентификатор кодека : S_TEXT/UTF8Идентификатор кодека/Информация : UTF-8 Plain TextЯзык : RussianDefault : НетForced : Нет
Текст #2Идентификатор : 8Формат : UTF-8Идентификатор кодека : S_TEXT/UTF8Идентификатор кодека/Информация : UTF-8 Plain TextЯзык : EnglishDefault : НетForced : Нет
Меню00:00:00.000 : en:Chapter 100:11:17.000 : en:Chapter 200:21:34.000 : en:Chapter 300:32:04.000 : en:Chapter 400:44:06.000 : en:Chapter 500:54:04.000 : en:Chapter 601:04:12.000 : en:Chapter 7

Скриншоты

Показать сообщения:    

Текущее время: 17-Окт 14:22

Часовой пояс: UTC - 1


Вы не можете начинать темы
Вы не можете отвечать на сообщения
Вы не можете редактировать свои сообщения
Вы не можете удалять свои сообщения
Вы не можете голосовать в опросах
Вы не можете прикреплять файлы к сообщениям
Вы не можете скачивать файлы

!ВНИМАНИЕ!
Сайт не предоставляет электронные версии произведений, а занимается лишь коллекционированием и каталогизацией ссылок, присылаемых и публикуемых на форуме нашими читателями. Если вы являетесь правообладателем какого-либо представленного материала и не желаете, чтобы ссылка на него находилась в нашем каталоге, свяжитесь с нами, и мы незамедлительно удалим ее. Файлы для обмена на трекере предоставлены пользователями сайта, и администрация не несет ответственности за их содержание. Просьба не заливать файлы, защищенные авторскими правами, а также файлы нелегального содержания!