Ивановский Торрент трекер
Яндекс.Погода
 

[Цитировать]
HUNTER

Все о моем отце / This Is My Father«A Journey Of The Heart»- Страна: Ирландия, Канада
Студия: Father Productions (II), Filmline International
Жанр: Мелодрама, драма
Год выпуска: 1998
Продолжительность: 01:54:54-Перевод: Профессиональный (многоголосый закадровый)
Cубтитры: нет
Оригинальная аудиодорожка: английский-Режиссер: Пол Куинн / Paul Quinn-В ролях: Джеймс Каан, Джейкоб Тирни, Колм Мини, Джон Кьюсак, Мойра Диди, Сьюзэн Алмгрен, Полин Хаттон, Фиона Глэскотт, Франсуаза Гратон, Джоэль Гордон, Александра Спант-Описание: Давая студентам интересное задание — изучить и написать свою родословную, чикагский профессор Кейрон Джонсон вдруг неожиданно осознал, что сам почти ничего не знает о своих предках, особенно об отце, которого он никогда не видел. Чтобы заглянуть в прошлое, он отправляется на свою далекую родину — в Ирландию, где ему предстоит узнать историю страстной и трагической любви своих родителей.-Доп. информация: DVD R2. Русская звуковая дорожка стоит первой, дорожки переключаются с пульта плеера!
Бонусы: отсутствуют
Меню: есть, язык английский, анимированное, озвученное-Sample | IMDB | КиноПоиск-Тип релиза: DVD5 (Custom)
Контейнер: DVD-Video-Видео: PAL 4:3 (720x576) VBR
Аудио 1: AC3, 2/0 ch, 192Kbps, Delay 0 mSec [Russian_MVO]
Аудио 2: AC3, 2/0 ch, 224Kbps, Delay 0 mSec [Original_Eng]-Релиз группы: -

Используемое ПО

1. BeLight - перекодирование mp3 - wav;
2. Adobe Audition - синхронизация;
3. Minnetonka Audio Software - перекодирование wav - ac3;

4. PgcDemux - разборка оригинального DVD;
5. MuxMan - сборка DVD;
6. DVDReMake Pro - финальный проект.

DVDInfo

Title:
Size: 4.21 Gb ( 4 416 114 KBytes ) - DVD-5
Enabled regions: 1, 2, 3, 4, 5, 6, 7, 8
VTS_01 :
Play Length: 01:54:54
Video: PAL 4:3 (720x576) VBR
Audio:
Russian (Dolby AC3, 2 ch)
English (Dolby AC3, 2 ch)
VTS_02 :
Play Length:
Video: PAL 4:3 (720x576) VBR
Audio:
English (Dolby AC3, 2 ch)
VTS_03 :
Play Length:
Video: PAL 4:3 (720x576) VBR
Menu Video:
NTSC 4:3 (720x480) VBR
Auto Pan&Scan, Auto Letterboxed
Menu English Language Unit :
Root Menu

MediaInfo

General
Complete name : D:\Мои релизы\This Is My Father [DVD5]\VIDEO_TS\VIDEO_TS.BUP
Format : DVD Video
Format profile : Menu
File size : 12.0 KiB
Video
ID : 224 (0xE0)
Format : MPEG Video
Format version : Version 1
Bit rate mode : Variable
Width : 720 pixels
Height : 480 pixels
Display aspect ratio : 4:3
Frame rate : 29.970 fps
Standard : NTSC
Compression mode : Lossy
General
Complete name : D:\Мои релизы\This Is My Father [DVD5]\VIDEO_TS\VIDEO_TS.IFO
Format : DVD Video
Format profile : Menu
File size : 12.0 KiB
Video
ID : 224 (0xE0)
Format : MPEG Video
Format version : Version 1
Bit rate mode : Variable
Width : 720 pixels
Height : 480 pixels
Display aspect ratio : 4:3
Frame rate : 29.970 fps
Standard : NTSC
Compression mode : Lossy
General
Complete name : D:\Мои релизы\This Is My Father [DVD5]\VIDEO_TS\VTS_01_0.BUP
Format : DVD Video
Format profile : Program
File size : 86.0 KiB
Duration : 1h 54mn
Overall bit rate : 102 bps
Video
ID : 224 (0xE0)
Format : MPEG Video
Format version : Version 2
Duration : 1h 54mn
Bit rate mode : Variable
Width : 720 pixels
Height : 576 pixels
Display aspect ratio : 4:3
Frame rate : 25.000 fps
Standard : PAL
Compression mode : Lossy
Audio #1
ID : 128 (0x80)
Format : AC-3
Format/Info : Audio Coding 3
Duration : 1h 54mn
Channel(s) : 2 channels
Sampling rate : 48.0 KHz
Compression mode : Lossy
Language : Russian
Audio #2
ID : 129 (0x81)
Format : AC-3
Format/Info : Audio Coding 3
Duration : 1h 54mn
Channel(s) : 2 channels
Sampling rate : 48.0 KHz
Compression mode : Lossy
Language : English
Menu
Duration : 1h 54mn
00:00:00.000 : Chapter 1
00:08:33.720 : Chapter 2
00:17:30.240 : Chapter 3
00:26:35.280 : Chapter 4
00:35:33.720 : Chapter 5
00:44:34.320 : Chapter 6
00:53:27.240 : Chapter 7
01:02:24.960 : Chapter 8
01:13:07.200 : Chapter 9
01:20:15.600 : Chapter 10
01:29:22.680 : Chapter 11
01:38:35.640 : Chapter 12
List (Audio) : 0 / 1
General
Complete name : D:\Мои релизы\This Is My Father [DVD5]\VIDEO_TS\VTS_01_0.IFO
Format : DVD Video
Format profile : Program
File size : 86.0 KiB
Duration : 1h 54mn
Overall bit rate : 102 bps
Video
ID : 224 (0xE0)
Format : MPEG Video
Format version : Version 2
Duration : 1h 54mn
Bit rate mode : Variable
Width : 720 pixels
Height : 576 pixels
Display aspect ratio : 4:3
Frame rate : 25.000 fps
Standard : PAL
Compression mode : Lossy
Audio #1
ID : 128 (0x80)
Format : AC-3
Format/Info : Audio Coding 3
Duration : 1h 54mn
Channel(s) : 2 channels
Sampling rate : 48.0 KHz
Compression mode : Lossy
Language : Russian
Audio #2
ID : 129 (0x81)
Format : AC-3
Format/Info : Audio Coding 3
Duration : 1h 54mn
Channel(s) : 2 channels
Sampling rate : 48.0 KHz
Compression mode : Lossy
Language : English
Menu
Duration : 1h 54mn
00:00:00.000 : Chapter 1
00:08:33.720 : Chapter 2
00:17:30.240 : Chapter 3
00:26:35.280 : Chapter 4
00:35:33.720 : Chapter 5
00:44:34.320 : Chapter 6
00:53:27.240 : Chapter 7
01:02:24.960 : Chapter 8
01:13:07.200 : Chapter 9
01:20:15.600 : Chapter 10
01:29:22.680 : Chapter 11
01:38:35.640 : Chapter 12
List (Audio) : 0 / 1
General
Complete name : D:\Мои релизы\This Is My Father [DVD5]\VIDEO_TS\VTS_01_0.VOB
Format : MPEG-PS
File size : 71.4 MiB
Duration : 30s 0ms
Overall bit rate : 20.0 Mbps
Video
ID : 224 (0xE0)
Format : MPEG Video
Format version : Version 2
Format profile : Main@Main
Format settings, BVOP : Yes
Format settings, Matrix : Default
Format settings, GOP : M=3, N=15
Duration : 30s 0ms
Bit rate mode : Constant
Bit rate : 18.0 Mbps
Nominal bit rate : 6 000 Kbps
Width : 720 pixels
Height : 576 pixels
Display aspect ratio : 4:3
Frame rate : 25.000 fps
Standard : PAL
Color space : YUV
Chroma subsampling : 4:2:0
Bit depth : 8 bits
Scan type : Progressive
Compression mode : Lossy
Bits/(Pixel*Frame) : 1.738
Stream size : 64.4 MiB (90%)
Audio
ID : 160 (0xA0)
Format : PCM
Format settings, Endianness : Big
Format settings, Sign : Signed
Muxing mode : DVD-Video
Duration : 30s 0ms
Bit rate mode : Constant
Bit rate : 1 536 Kbps
Channel(s) : 2 channels
Channel positions : Front: L R
Sampling rate : 48.0 KHz
Bit depth : 16 bits
Stream size : 5.49 MiB (8%)
Text
ID : 32 (0x20)
Format : RLE
Format/Info : Run-length encoding
Menu
General
Complete name : D:\Мои релизы\This Is My Father [DVD5]\VIDEO_TS\VTS_01_1.VOB
Format : MPEG-PS
File size : 1 024 MiB
Duration : 28mn 1s
Overall bit rate : 5 109 Kbps
Video
ID : 224 (0xE0)
Format : MPEG Video
Format version : Version 2
Format profile : Main@Main
Format settings, BVOP : Yes
Format settings, Matrix : Default
Format settings, GOP : M=3, N=12
Duration : 28mn 1s
Bit rate mode : Variable
Bit rate : 4 591 Kbps
Nominal bit rate : 8 000 Kbps
Width : 720 pixels
Height : 576 pixels
Display aspect ratio : 4:3
Frame rate : 25.000 fps
Standard : PAL
Color space : YUV
Chroma subsampling : 4:2:0
Bit depth : 8 bits
Scan type : Interlaced
Scan order : Top Field First
Compression mode : Lossy
Bits/(Pixel*Frame) : 0.443
Stream size : 920 MiB (90%)
Audio #1
ID : 128 (0x80)
Format : AC-3
Format/Info : Audio Coding 3
Mode extension : CM (complete main)
Duration : 28mn 1s
Bit rate mode : Constant
Bit rate : 192 Kbps
Channel(s) : 2 channels
Channel positions : Front: L R
Sampling rate : 48.0 KHz
Bit depth : 16 bits
Compression mode : Lossy
Video delay : -80ms
Stream size : 38.5 MiB (4%)
Audio #2
ID : 129 (0x81)
Format : AC-3
Format/Info : Audio Coding 3
Mode extension : CM (complete main)
Duration : 28mn 1s
Bit rate mode : Constant
Bit rate : 224 Kbps
Channel(s) : 2 channels
Channel positions : Front: L R
Sampling rate : 48.0 KHz
Bit depth : 16 bits
Compression mode : Lossy
Video delay : -80ms
Stream size : 44.9 MiB (4%)
Menu
General
Complete name : D:\Мои релизы\This Is My Father [DVD5]\VIDEO_TS\VTS_01_2.VOB
Format : MPEG-PS
File size : 1 024 MiB
Duration : 27mn 36s
Overall bit rate : 5 187 Kbps
Video
ID : 224 (0xE0)
Format : MPEG Video
Format version : Version 2
Format profile : Main@Main
Format settings, BVOP : Yes
Format settings, Matrix : Default
Format settings, GOP : M=3, N=12
Duration : 27mn 36s
Bit rate mode : Variable
Bit rate : 4 667 Kbps
Nominal bit rate : 8 000 Kbps
Width : 720 pixels
Height : 576 pixels
Display aspect ratio : 4:3
Frame rate : 25.000 fps
Standard : PAL
Color space : YUV
Chroma subsampling : 4:2:0
Bit depth : 8 bits
Scan type : Interlaced
Scan order : Top Field First
Compression mode : Lossy
Bits/(Pixel*Frame) : 0.450
Stream size : 921 MiB (90%)
Audio #1
ID : 128 (0x80)
Format : AC-3
Format/Info : Audio Coding 3
Mode extension : CM (complete main)
Duration : 27mn 36s
Bit rate mode : Constant
Bit rate : 192 Kbps
Channel(s) : 2 channels
Channel positions : Front: L R
Sampling rate : 48.0 KHz
Bit depth : 16 bits
Compression mode : Lossy
Video delay : -200ms
Stream size : 37.9 MiB (4%)
Audio #2
ID : 129 (0x81)
Format : AC-3
Format/Info : Audio Coding 3
Mode extension : CM (complete main)
Duration : 27mn 36s
Bit rate mode : Constant
Bit rate : 224 Kbps
Channel(s) : 2 channels
Channel positions : Front: L R
Sampling rate : 48.0 KHz
Bit depth : 16 bits
Compression mode : Lossy
Video delay : -200ms
Stream size : 44.2 MiB (4%)
Menu
General
Complete name : D:\Мои релизы\This Is My Father [DVD5]\VIDEO_TS\VTS_01_3.VOB
Format : MPEG-PS
File size : 1 024 MiB
Duration : 27mn 50s
Overall bit rate : 5 143 Kbps
Video
ID : 224 (0xE0)
Format : MPEG Video
Format version : Version 2
Format profile : Main@Main
Format settings, BVOP : Yes
Format settings, Matrix : Default
Format settings, GOP : M=3, N=12
Duration : 27mn 49s
Bit rate mode : Variable
Bit rate : 4 624 Kbps
Nominal bit rate : 8 000 Kbps
Width : 720 pixels
Height : 576 pixels
Display aspect ratio : 4:3
Frame rate : 25.000 fps
Standard : PAL
Color space : YUV
Chroma subsampling : 4:2:0
Bit depth : 8 bits
Scan type : Interlaced
Scan order : Top Field First
Compression mode : Lossy
Bits/(Pixel*Frame) : 0.446
Stream size : 921 MiB (90%)
Audio #1
ID : 128 (0x80)
Format : AC-3
Format/Info : Audio Coding 3
Mode extension : CM (complete main)
Duration : 27mn 50s
Bit rate mode : Constant
Bit rate : 192 Kbps
Channel(s) : 2 channels
Channel positions : Front: L R
Sampling rate : 48.0 KHz
Bit depth : 16 bits
Compression mode : Lossy
Video delay : -520ms
Stream size : 38.2 MiB (4%)
Audio #2
ID : 129 (0x81)
Format : AC-3
Format/Info : Audio Coding 3
Mode extension : CM (complete main)
Duration : 27mn 50s
Bit rate mode : Constant
Bit rate : 224 Kbps
Channel(s) : 2 channels
Channel positions : Front: L R
Sampling rate : 48.0 KHz
Bit depth : 16 bits
Compression mode : Lossy
Video delay : -616ms
Stream size : 44.6 MiB (4%)
Menu
General
Complete name : D:\Мои релизы\This Is My Father [DVD5]\VIDEO_TS\VTS_01_4.VOB
Format : MPEG-PS
File size : 1 024 MiB
Duration : 27mn 34s
Overall bit rate : 5 191 Kbps
Video
ID : 224 (0xE0)
Format : MPEG Video
Format version : Version 2
Format profile : Main@Main
Format settings, BVOP : Yes
Format settings, Matrix : Default
Format settings, GOP : M=3, N=12
Duration : 27mn 34s
Bit rate mode : Variable
Bit rate : 4 672 Kbps
Nominal bit rate : 8 000 Kbps
Width : 720 pixels
Height : 576 pixels
Display aspect ratio : 4:3
Frame rate : 25.000 fps
Standard : PAL
Color space : YUV
Chroma subsampling : 4:2:0
Bit depth : 8 bits
Scan type : Interlaced
Scan order : Top Field First
Compression mode : Lossy
Bits/(Pixel*Frame) : 0.451
Stream size : 921 MiB (90%)
Audio #1
ID : 128 (0x80)
Format : AC-3
Format/Info : Audio Coding 3
Mode extension : CM (complete main)
Duration : 27mn 34s
Bit rate mode : Constant
Bit rate : 192 Kbps
Channel(s) : 2 channels
Channel positions : Front: L R
Sampling rate : 48.0 KHz
Bit depth : 16 bits
Compression mode : Lossy
Video delay : -560ms
Stream size : 37.9 MiB (4%)
Audio #2
ID : 129 (0x81)
Format : AC-3
Format/Info : Audio Coding 3
Mode extension : CM (complete main)
Duration : 27mn 34s
Bit rate mode : Constant
Bit rate : 224 Kbps
Channel(s) : 2 channels
Channel positions : Front: L R
Sampling rate : 48.0 KHz
Bit depth : 16 bits
Compression mode : Lossy
Video delay : -560ms
Stream size : 44.2 MiB (4%)
Menu
General
Complete name : D:\Мои релизы\This Is My Father [DVD5]\VIDEO_TS\VTS_01_5.VOB
Format : MPEG-PS
File size : 145 MiB
Duration : 3mn 51s
Overall bit rate : 5 247 Kbps
Video
ID : 224 (0xE0)
Format : MPEG Video
Format version : Version 2
Format profile : Main@Main
Format settings, BVOP : Yes
Format settings, Matrix : Default
Format settings, GOP : M=3, N=12
Duration : 3mn 51s
Bit rate mode : Variable
Bit rate : 4 727 Kbps
Nominal bit rate : 8 000 Kbps
Width : 720 pixels
Height : 576 pixels
Display aspect ratio : 4:3
Frame rate : 25.000 fps
Standard : PAL
Color space : YUV
Chroma subsampling : 4:2:0
Bit depth : 8 bits
Scan type : Interlaced
Scan order : Top Field First
Compression mode : Lossy
Bits/(Pixel*Frame) : 0.456
Stream size : 130 MiB (90%)
Audio #1
ID : 128 (0x80)
Format : AC-3
Format/Info : Audio Coding 3
Mode extension : CM (complete main)
Duration : 3mn 51s
Bit rate mode : Constant
Bit rate : 192 Kbps
Channel(s) : 2 channels
Channel positions : Front: L R
Sampling rate : 48.0 KHz
Bit depth : 16 bits
Compression mode : Lossy
Video delay : -496ms
Stream size : 5.30 MiB (4%)
Audio #2
ID : 129 (0x81)
Format : AC-3
Format/Info : Audio Coding 3
Mode extension : CM (complete main)
Duration : 3mn 51s
Bit rate mode : Constant
Bit rate : 224 Kbps
Channel(s) : 2 channels
Channel positions : Front: L R
Sampling rate : 48.0 KHz
Bit depth : 16 bits
Compression mode : Lossy
Video delay : -496ms
Stream size : 6.19 MiB (4%)
Menu
General
Complete name : D:\Мои релизы\This Is My Father [DVD5]\VIDEO_TS\VTS_02_0.BUP
Format : DVD Video
Format profile : Program
File size : 18.0 KiB
Duration : 480ms
Overall bit rate : 307 Kbps
Video
ID : 224 (0xE0)
Format : MPEG Video
Format version : Version 2
Duration : 480ms
Bit rate mode : Variable
Width : 720 pixels
Height : 576 pixels
Display aspect ratio : 4:3
Frame rate : 25.000 fps
Standard : PAL
Compression mode : Lossy
Audio
ID : 128 (0x80)
Format : AC-3
Format/Info : Audio Coding 3
Duration : 480ms
Channel(s) : 2 channels
Sampling rate : 48.0 KHz
Compression mode : Lossy
Language : English
Menu
Duration : 480ms
00:00:00.000 : Chapter 1
List (Audio) : 0
General
Complete name : D:\Мои релизы\This Is My Father [DVD5]\VIDEO_TS\VTS_02_0.IFO
Format : DVD Video
Format profile : Program
File size : 18.0 KiB
Duration : 480ms
Overall bit rate : 307 Kbps
Video
ID : 224 (0xE0)
Format : MPEG Video
Format version : Version 2
Duration : 480ms
Bit rate mode : Variable
Width : 720 pixels
Height : 576 pixels
Display aspect ratio : 4:3
Frame rate : 25.000 fps
Standard : PAL
Compression mode : Lossy
Audio
ID : 128 (0x80)
Format : AC-3
Format/Info : Audio Coding 3
Duration : 480ms
Channel(s) : 2 channels
Sampling rate : 48.0 KHz
Compression mode : Lossy
Language : English
Menu
Duration : 480ms
00:00:00.000 : Chapter 1
List (Audio) : 0
General
Complete name : D:\Мои релизы\This Is My Father [DVD5]\VIDEO_TS\VTS_02_0.VOB
Format : MPEG-PS
File size : 10.0 KiB
Duration : 40ms
Overall bit rate : 2 048 Kbps
Video
ID : 224 (0xE0)
Format : MPEG Video
Format version : Version 2
Format profile : Main@Main
Format settings, BVOP : No
Format settings, Matrix : Default
Duration : 40ms
Bit rate mode : Constant
Bit rate : 8 000 Kbps
Width : 720 pixels
Height : 576 pixels
Display aspect ratio : 16:9
Frame rate : 25.000 fps
Standard : PAL
Color space : YUV
Chroma subsampling : 4:2:0
Bit depth : 8 bits
Scan type : Progressive
Scan order : Top Field First
Compression mode : Lossy
Bits/(Pixel*Frame) : 0.772
Stream size : 39.1 KiB
Menu
General
Complete name : D:\Мои релизы\This Is My Father [DVD5]\VIDEO_TS\VTS_02_1.VOB
Format : MPEG-PS
File size : 10.0 KiB
Duration : 40ms
Overall bit rate : 2 048 Kbps
Video
ID : 224 (0xE0)
Format : MPEG Video
Format version : Version 2
Format profile : Main@Main
Format settings, BVOP : No
Format settings, Matrix : Default
Duration : 40ms
Bit rate mode : Constant
Bit rate : 8 000 Kbps
Width : 720 pixels
Height : 576 pixels
Display aspect ratio : 16:9
Frame rate : 25.000 fps
Standard : PAL
Color space : YUV
Chroma subsampling : 4:2:0
Bit depth : 8 bits
Scan type : Progressive
Scan order : Top Field First
Compression mode : Lossy
Bits/(Pixel*Frame) : 0.772
Stream size : 39.1 KiB
Menu
General
Complete name : D:\Мои релизы\This Is My Father [DVD5]\VIDEO_TS\VTS_03_0.BUP
Format : DVD Video
Format profile : Program
File size : 18.0 KiB
Duration : 480ms
Overall bit rate : 307 Kbps
Video
ID : 224 (0xE0)
Format : MPEG Video
Format version : Version 2
Duration : 480ms
Bit rate mode : Variable
Width : 720 pixels
Height : 576 pixels
Display aspect ratio : 4:3
Frame rate : 25.000 fps
Standard : PAL
Compression mode : Lossy
Menu
Duration : 480ms
00:00:00.000 : Chapter 1
General
Complete name : D:\Мои релизы\This Is My Father [DVD5]\VIDEO_TS\VTS_03_0.IFO
Format : DVD Video
Format profile : Program
File size : 18.0 KiB
Duration : 480ms
Overall bit rate : 307 Kbps
Video
ID : 224 (0xE0)
Format : MPEG Video
Format version : Version 2
Duration : 480ms
Bit rate mode : Variable
Width : 720 pixels
Height : 576 pixels
Display aspect ratio : 4:3
Frame rate : 25.000 fps
Standard : PAL
Compression mode : Lossy
Menu
Duration : 480ms
00:00:00.000 : Chapter 1
General
Complete name : D:\Мои релизы\This Is My Father [DVD5]\VIDEO_TS\VTS_03_0.VOB
Format : MPEG-PS
File size : 10.0 KiB
Duration : 40ms
Overall bit rate : 2 048 Kbps
Video
ID : 224 (0xE0)
Format : MPEG Video
Format version : Version 2
Format profile : Main@Main
Format settings, BVOP : No
Format settings, Matrix : Default
Duration : 40ms
Bit rate mode : Constant
Bit rate : 8 000 Kbps
Width : 720 pixels
Height : 576 pixels
Display aspect ratio : 16:9
Frame rate : 25.000 fps
Standard : PAL
Color space : YUV
Chroma subsampling : 4:2:0
Bit depth : 8 bits
Scan type : Progressive
Scan order : Top Field First
Compression mode : Lossy
Bits/(Pixel*Frame) : 0.772
Stream size : 39.1 KiB
Menu
General
Complete name : D:\Мои релизы\This Is My Father [DVD5]\VIDEO_TS\VTS_03_1.VOB
Format : MPEG-PS
File size : 10.0 KiB
Duration : 40ms
Overall bit rate : 2 048 Kbps
Video
ID : 224 (0xE0)
Format : MPEG Video
Format version : Version 2
Format profile : Main@Main
Format settings, BVOP : No
Format settings, Matrix : Default
Duration : 40ms
Bit rate mode : Constant
Bit rate : 8 000 Kbps
Width : 720 pixels
Height : 576 pixels
Display aspect ratio : 16:9
Frame rate : 25.000 fps
Standard : PAL
Color space : YUV
Chroma subsampling : 4:2:0
Bit depth : 8 bits
Scan type : Progressive
Scan order : Top Field First
Compression mode : Lossy
Bits/(Pixel*Frame) : 0.772
Stream size : 39.1 KiB
Menu

Скриншоты меню

Скриншоты



Показать сообщения:    

Текущее время: 17-Дек 19:36

Часовой пояс: UTC ± 0


Вы не можете начинать темы
Вы не можете отвечать на сообщения
Вы не можете редактировать свои сообщения
Вы не можете удалять свои сообщения
Вы не можете голосовать в опросах
Вы не можете прикреплять файлы к сообщениям
Вы не можете скачивать файлы

!ВНИМАНИЕ!
Сайт не предоставляет электронные версии произведений, а занимается лишь коллекционированием и каталогизацией ссылок, присылаемых и публикуемых на форуме нашими читателями. Если вы являетесь правообладателем какого-либо представленного материала и не желаете, чтобы ссылка на него находилась в нашем каталоге, свяжитесь с нами, и мы незамедлительно удалим ее. Файлы для обмена на трекере предоставлены пользователями сайта, и администрация не несет ответственности за их содержание. Просьба не заливать файлы, защищенные авторскими правами, а также файлы нелегального содержания!