Важное объявление!
У Нас Все раздачи мультитрекерные, при нуле пиров в релизах, можете смело вставать на закачку!
Статистика раздачи
Размер:     |    Зарегистрирован:     |    Скачан:     |   
Нет
 
     
 
 
Автор Сообщение

HUNTER

Стаж:
5 лет
Сообщений:
68043

Репутация: 101

[+] [-]
Вне форума [Профиль] [ЛС]

-
Год выпуска: 2014
Страна: Япония
Жанр: комедия, романтика
Продолжительность: ТВ, 12 эп. по 24 мин.
Выпуск: c 04.04.2014 по 20.06.2014-Перевод:

  • русские субтитры от sovetromantica (полные/вспомогательные)
    переводчики: Esito, Артём Сазанов
    -Режиссер: Мия Сигэюки
    Студия: Brains Base-Описание:
    16-летний Кадзунари Уса, честный, но недалекий, полагал, что с началом старшей школы жизнь чудесно изменится. Подальше от родителей, поближе к девушкам, собственное жилье – что еще нужно для души? С жильем помогла мама, и парень, даже не проверив адрес, поспешил в школу, где и встретил ЕЕ – свою мечту. Кое-как добравшись потом до места жительства, Кадзунари узнал две новости – плохую и хорошую. Плохая заключалась в том, что доходный дом Кавай выглядел типичной деревянной развалиной, а комнату пришлось делить со странным типом по имени Сиросаки. Хорошая же искупала все – его богиня и обретенная любовь Рицу Кавай оказалась соседкой по общежитию и двоюродной внучкой хозяйки!
    Любовь воистину открывает глаза, и Уса понял, что новый дом – не фанерный сарай, а романтический особняк в традиционном стиле, его хозяйка Сумико – не старая хитрованка, а мудрая женщина, фактически будущая родня, ну а сосед по комнате – никакой не мазохист-извращенец, а просто философ и безобидный оригинал. Остальные жильцы – несчастливая в личной жизни, оттого сильно пьющая офисная леди Маюми и студентка Саяка, девушка со специфическими наклонностями, тоже быстро вписались в картину мира Кадзунари-куна, основанную на добре, гармонии и всеобщей любви. Все мы люди со своими достоинствами и недостатками, Будда учил прощать и помогать друг другу, а иначе в доме Кавай жить невозможно!
    © Hollow, World Art
    В названии сериала очередная игра слов. Дословно оно значит «Мы все из доходного дома Кавай». Если же «дом Кавай», kawai-sou, воспринимать фонетически, то получается «Нас всех можно только пожалеть». Английская версия названия значит «Полное руководство семьи Кавай по жизни в доходных домах и общежитиях».-Информационные ссылки: AniDB || World Art || MAL-Качество: BDRip
    Энкод: Winter - RG Pantheon
    Тип видео: без хардсаба, без линковки
    Формат: mkv
    Видео: x264 (Hi10p), 1280x720, ~4100 Kbps, 23.976 fps
    Аудио JAP: Vorbis, 48000Hz, ~256 Kbps, 2ch
    Аудио RUS 1: AC3, 48000Hz, ~192 Kbps, 2ch (внешними файлами)-

    Список озвучек в раздаче
  • двухголосая (муж./жен.) от Keita & Milirina (Anything-group)
    Список эпизодов
    01. Just Imagine
    02. Is It?
    СкриншотыОтличия от других раздачПодробные тех. данные
    Общее
    Уникальный идентификатор : 232127225493207680274321737042362542784 (0xAEA213D3AA0A4F8390A840CB6222AAC0)
    Полное имя : Z:\Anime\720p\Bokura wa Minna Kawaisou [BD] [720p]\[Winter] Bokura wa Minna Kawaisou 02 [BDrip 1280x720 x264 Vorbis].mkv
    Формат : Matroska
    Версия формата : Version 2
    Размер файла : 758 Мбайт
    Продолжительность : 24 м.
    Режим общего битрейта : Переменный
    Общий поток : 4380 Кбит/сек
    Дата кодирования : UTC 2014-07-13 14:09:56
    Программа кодирования : mkvmerge v2.9.8 ('C'est le bon') built on Aug 13 2009 12:49:06
    Библиотека кодирования : libebml v0.7.7 + libmatroska v0.8.1
    Видео
    Идентификатор : 1
    Формат : AVC
    Формат/Информация : Advanced Video Codec
    Профиль формата : High 10@L4.1
    Параметр CABAC формата : Да
    Параметр ReFrames формата : 9 кадров
    Идентификатор кодека : V_MPEG4/ISO/AVC
    Продолжительность : 24 м.
    Битрейт : 4037 Кбит/сек
    Ширина : 1280 пикселей
    Высота : 720 пикселей
    Соотношение сторон : 16:9
    Режим частоты кадров : Постоянный
    Частота кадров : 23,976 кадра/сек
    Цветовое пространство : YUV
    Субдискретизация насыщенности : 4:2:0
    Битовая глубина : 10 бит
    Тип развёртки : Прогрессивная
    Бит/(Пиксели*Кадры) : 0.183
    Размер потока : 699 Мбайт (92%)
    Библиотека кодирования : x264 core 132 r2309 3b1f1f7
    Настройки программы : cabac=1 / ref=9 / deblock=1:-2:-2 / analyse=0x3:0x133 / me=umh / subme=9 / psy=1 / psy_rd=0.90:0.00 / mixed_ref=1 / me_range=24 / chroma_me=1 / trellis=2 / 8x8dct=1 / cqm=0 / deadzone=21,11 / fast_pskip=1 / chroma_qp_offset=-2 / threads=12 / lookahead_threads=2 / sliced_threads=0 / nr=0 / decimate=0 / interlaced=0 / bluray_compat=0 / constrained_intra=0 / bframes=8 / b_pyramid=2 / b_adapt=2 / b_bias=0 / direct=1 / weightb=1 / open_gop=0 / weightp=2 / keyint=250 / keyint_min=23 / scenecut=40 / intra_refresh=0 / rc=crf / mbtree=0 / crf=16.0 / qcomp=0.70 / qpmin=9 / qpmax=40 / qpstep=4 / ip_ratio=1.40 / pb_ratio=1.30 / aq=1:0.90 / zones=2496,3431,b=1.2
    Default : Нет
    Forced : Нет
    Аудио
    Идентификатор : 2
    Формат : Vorbis
    Параметр Floor формата : 1
    Идентификатор кодека : A_VORBIS
    Продолжительность : 24 м.
    Вид битрейта : Переменный
    Битрейт : 256 Кбит/сек
    Каналы : 2 канала
    Частота : 48,0 КГц
    Метод сжатия : С потерями
    Размер потока : 44,3 Мбайт (6%)
    Библиотека кодирования : libVorbis 1.0 (UTC 2002-07-17)
    Язык : Japanese
    Default : Да
    Forced : Нет
    - -Информация о релизе
  • Выбор видео, перевода, озвучки, а также типа сборки материала осуществляется релизером и не подлежит обсуждению. Если вы считаете, что раздаваемый материал противоречит правилам раздела "Аниме" rutracker.org, сообщите об этом одному из модераторов раздела.
  • В случае появления нового материала или же лучшего по качеству материала релизер оставляет за собой право обновить раздачу. В этом случае вам необходимо ознакомиться с изменениями (добавлениями) и перекачать торрент.
  • Данный релиз предназначен для просмотра на ПК. Воспроизведение на иных проигрывателях не гарантируется. Для просмотра рекомендуется Media Player Classic с установленным пакетом кодеков K-Lite.
  • Данный релиз содержит 10-битное видео (Hi10p). Для корректного воспроизведения обязательно используйте кодеки, поддерживающие 10-битное видео.
    Обсудить частные случаи проблем с воспроизведением и получить дополнительную информацию можно здесь.

  • Данный релиз предназначен для просмотра с внешними субтитрами и внешними звуковыми дорожками.
  • Для просмотра с внешней звуковой дорожкой нужно:
    перекинуть файлы .mka из папки "RUS Sound [<автор(ы) озвучки>]" в одну папку с видео и переключить звуковую дорожку в плеере при просмотре. Как это сделать в разных плеерах подробно описано здесь.

  • Для просмотра с субтитрами нужно:
    перекинуть файлы .ass из папки "RUS Subtitles [<автор(ы) перевода>]" в одну папку с видео - плеер подгрузит их автоматически при открытии видео.

  • Если у вас возникли проблемы с просмотром, не связанные с описанным выше, сообщите о них автору раздачи посредством сообщения в теме или ЛС Aglenn.

  • _________________
    Показать сообщения:    

    Текущее время: Сегодня 22:34

    Часовой пояс: GMT



    Вы не можете начинать темы
    Вы не можете отвечать на сообщения
    Вы не можете редактировать свои сообщения
    Вы не можете удалять свои сообщения
    Вы не можете голосовать в опросах
    Вы не можете прикреплять файлы к сообщениям
    Вы не можете скачивать файлы