Важное объявление!
У Нас Все раздачи мультитрекерные, при нуле пиров в релизах, можете смело вставать на закачку!
 
Автор Сообщение

HUNTER

Стаж:
4 года 6 месяцев
Сообщений:
60975

Репутация: 101

[+] [-]
Вне форума [Профиль] [ЛС]

Всей работы на одну ночь / All in a Night's Work
Страна: США
Студия: Hal Wallis Productions / Paramount Pictures
Жанр: Комедия
Год выпуска: 1961
Продолжительность: 01:29:16
Перевод: Профессиональный (многоголосый закадровый)
Cубтитры: нет
Оригинальная аудиодорожка: Английский
Режиссер: Джозеф Энтони / Joseph Anthony
В ролях: Дин Мартин, Ширли МакЛейн, Клифф Робертсон, Чарльз Рагглз, Норма Крэйн, Джек Уэстон, Джон Хадсон, Джером Кауэн, Гэйл Гордон, Ральф Думке
Описание: Дядя Тони Райдер (Дин Мартин), состоятельный владелец газеты, только что умер. Молодой плейбой Тони наследует бумаги, и остается в совете директоров, он думает, что он не подходит для выполнения этой задачи, а так же детектив отеля, который думает, что Тони должен знать о девушке, которая была замечена убегая от гостиничного номера дяди в отеле Palm Beach, в турецком полотенце и с одной серёжкой, в ночь его смерти.
Тони узнаёт, что молодая девушка Кэти Роббинс (Ширли МакЛейн) находится в научно-исследовательском отделе. Совет постановил, что он должен отправить детектива, что бы предотвратить любые попытки шантажа.
Сэмпл: http://multi-up.com/970406, http://rusfolder.com/40577296
Тип релиза: HDTV 1080i
Контейнер: TS
Видео: 4685 Кбит/сек, MPEG4 Video (H264) 1920x1080 (16:9) 25fps
Аудио: MPEG Audio 48000Hz stereo Layer 2 192kbps RUS
Аудио: MPEG Audio 48000Hz stereo Layer 2 192kbps ENG
MediaInfo
Общее
Идентификатор : 1 (0x1)
Полное имя : D:\Всей работы на одну ночь (All in a Night's Work) [1961] (RUS-ENG) [Paramount Channel HD].ts
Формат : MPEG-TS
Размер файла : 3,33 Гбайт
Продолжительность : 1 ч. 29 м.
Режим общего битрейта : Переменный
Общий поток : 5336 Кбит/сек
Максимальный общий битрейт : 35,5 Мбит/сек
Видео
Идентификатор : 4113 (0x1011)
Идентификатор меню : 1 (0x1)
Формат : AVC
Формат/Информация : Advanced Video Codec
Профиль формата : High@L4.0
Параметр CABAC формата : Да
Параметр ReFrames формата : 4 кадра
Идентификатор кодека : 27
Продолжительность : 1 ч. 29 м.
Вид битрейта : Переменный
Битрейт : 4685 Кбит/сек
Максимальный битрейт : 5000 Кбит/сек
Ширина : 1920 пикселей
Высота : 1080 пикселей
Соотношение сторон : 16:9
Режим частоты кадров : Переменный
Цветовое пространство : YUV
Субдискретизация насыщенности : 4:2:0
Битовая глубина : 8 бит
Тип развёртки : MBAFF
Размер потока : 2,92 Гбайт (88%)
Аудио #1
Идентификатор : 4352 (0x1100)
Идентификатор меню : 1 (0x1)
Формат : MPEG Audio
Версия формата : Version 1
Профиль формата : Layer 2
Идентификатор кодека : 4
Продолжительность : 1 ч. 29 м.
Вид битрейта : Постоянный
Битрейт : 192 Кбит/сек
Каналы : 2 канала
Частота : 48,0 КГц
Метод сжатия : С потерями
Размер потока : 123 Мбайт (4%)
Язык : Russian
Аудио #2
Идентификатор : 4353 (0x1101)
Идентификатор меню : 1 (0x1)
Формат : MPEG Audio
Версия формата : Version 1
Профиль формата : Layer 2
Идентификатор кодека : 4
Продолжительность : 1 ч. 29 м.
Вид битрейта : Постоянный
Битрейт : 192 Кбит/сек
Каналы : 2 канала
Частота : 48,0 КГц
Метод сжатия : С потерями
Размер потока : 123 Мбайт (4%)
Язык : English
Скриншоты

_________________
Показать сообщения:    

Текущее время: Сегодня 19:19

Часовой пояс: GMT



Вы не можете начинать темы
Вы не можете отвечать на сообщения
Вы не можете редактировать свои сообщения
Вы не можете удалять свои сообщения
Вы не можете голосовать в опросах
Вы не можете прикреплять файлы к сообщениям
Вы не можете скачивать файлы
Наши партнеры: интернет магазин Ивановского трикотажа textilla.ru