Ивановский Торрент трекер
Яндекс.Погода
Статистика раздачи
Размер:  2.85 GB   |    Зарегистрирован:  2 года   |    Скачан:  0 раз

Полного источника не было: Никогда

 
     
 
 
 

[Цитировать]
HUNTER

Вредитель / The Pest
Страна: США
Студия: TriStar Pictures
Жанр: комедия
Год выпуска: 1997
Продолжительность: 01:24:15
Перевод: Профессиональный (многоголосый закадровый) Видеосервис
Cубтитры: английские
Оригинальная аудиодорожка: английский
Режиссер: Пол Миллер / Paul Miller
В ролях: Джон Легуизамо, Джеффри Джонс, Эдоардо Баллерини, Фредди Родригес, Тэмми Таунсенд, Ариес Спирс, Джо Мортон, Чарльз Хэллахан, Том МакКлейстер, Айвон Колл
Описание: Если Вы согласитесь стать живой мишенью за 50,000 баксов, то помните одно — бегать придется много, прятаться — еще больше. Профессиональный мошенник, попадает в серьезную передрягу, где ставка не только много-много долларов, но и его жизнь.
Ему приходится использовать все мастерство и навыки которые он приобрел с годами — перевоплощения, уловки и прочие хитрости. Главное — добраться до родного Майами, а там можно навсегда скрыться от охотников за его головой.


Sample
Тип релиза: WEB-DL 720p
Контейнер: MKV
Видео: MPEG4 AVC Video, H264, 16:9, 1280x716, 23.976 fps, 4176 kbps
Аудио: Russian (AC3, 2 ch, 192 kbps, 16 bits, 48.0 KHz) - MVO
Аудио 2: English (AC3, 6 ch, 384 kbps, 16 bits, 48.0 KHz) - оригинал
Формат субтитров: softsub (SRT)

MediaInfo

General
Unique ID : 239838575983145448378826105875012089611 (0xB46F3AC283001FAA811F2ABE259D770B)
Complete name : E:\The Pest 1997 720p WEB-DL.mkv
Format : Matroska
Format version : Version 4 / Version 2
File size : 2.85 GiB
Duration : 1h 24mn
Overall bit rate : 4 849 Kbps
Encoded date : UTC 2015-10-21 03:07:23
Writing application : mkvmerge v6.1.0 ('Old Devil') built on Mar 2 2013 14:32:37
Writing library : libebml v1.3.0 + libmatroska v1.4.0
Video
ID : 1
Format : AVC
Format/Info : Advanced Video Codec
Format profile : High@L3.1
Format settings, CABAC : No
Format settings, ReFrames : 2 frames
Codec ID : V_MPEG4/ISO/AVC
Duration : 1h 24mn
Bit rate : 4 176 Kbps
Width : 1 280 pixels
Height : 716 pixels
Display aspect ratio : 16:9
Frame rate mode : Constant
Frame rate : 23.976 fps
Color space : YUV
Chroma subsampling : 4:2:0
Bit depth : 8 bits
Scan type : Progressive
Bits/(Pixel*Frame) : 0.190
Stream size : 2.46 GiB (86%)
Language : English
Default : Yes
Forced : No
Color primaries : BT.709
Transfer characteristics : BT.709
Matrix coefficients : BT.709
Audio #1
ID : 2
Format : AC-3
Format/Info : Audio Coding 3
Mode extension : CM (complete main)
Format settings, Endianness : Big
Codec ID : A_AC3
Duration : 1h 24mn
Bit rate mode : Constant
Bit rate : 192 Kbps
Channel count : 2 channels
Channel positions : Front: L R
Sampling rate : 48.0 KHz
Bit depth : 16 bits
Compression mode : Lossy
Stream size : 116 MiB (4%)
Language : Russian
Default : Yes
Forced : No
Audio #2
ID : 3
Format : AC-3
Format/Info : Audio Coding 3
Mode extension : CM (complete main)
Format settings, Endianness : Big
Codec ID : A_AC3
Duration : 1h 24mn
Bit rate mode : Constant
Bit rate : 384 Kbps
Channel count : 6 channels
Channel positions : Front: L C R, Side: L R, LFE
Sampling rate : 48.0 KHz
Bit depth : 16 bits
Compression mode : Lossy
Stream size : 231 MiB (8%)
Language : English
Default : No
Forced : No
Text
ID : 4
Format : UTF-8
Codec ID : S_TEXT/UTF8
Codec ID/Info : UTF-8 Plain Text
Language : English
Default : No
Forced : No
Menu
00:00:00.000 : en:Chapter 1
00:07:23.000 : en:Chapter 2
00:14:20.000 : en:Chapter 3
00:21:49.000 : en:Chapter 4
00:27:09.000 : en:Chapter 5
00:37:09.000 : en:Chapter 6
00:42:13.000 : en:Chapter 7
00:49:25.000 : en:Chapter 8
00:57:38.000 : en:Chapter 9
01:03:11.000 : en:Chapter 10
01:09:43.000 : en:Chapter 11
01:17:46.000 : en:Chapter 12

Скриншоты

[iv-torrents.ru].t52116.torrent
Торрент: Зарегистрирован [ 2015-12-08 11:00 ] · D054910026C78B203964B6E767FE4118B94CFA56

Скачать .torrent

Скачать

15 KB

Статус: проверено
Скачан: 0 раз
Размер: 2.85 GB
terms.php


Показать сообщения:    

Текущее время: 15-Дек 00:57

Часовой пояс: UTC ± 0


Вы не можете начинать темы
Вы не можете отвечать на сообщения
Вы не можете редактировать свои сообщения
Вы не можете удалять свои сообщения
Вы не можете голосовать в опросах
Вы не можете прикреплять файлы к сообщениям
Вы можете скачивать файлы

!ВНИМАНИЕ!
Сайт не предоставляет электронные версии произведений, а занимается лишь коллекционированием и каталогизацией ссылок, присылаемых и публикуемых на форуме нашими читателями. Если вы являетесь правообладателем какого-либо представленного материала и не желаете, чтобы ссылка на него находилась в нашем каталоге, свяжитесь с нами, и мы незамедлительно удалим ее. Файлы для обмена на трекере предоставлены пользователями сайта, и администрация не несет ответственности за их содержание. Просьба не заливать файлы, защищенные авторскими правами, а также файлы нелегального содержания!