Важное объявление!
У Нас Все раздачи мультитрекерные, при нуле пиров в релизах, можете смело вставать на закачку!
 
Автор Сообщение

HUNTER

Стаж:
4 года 8 месяцев
Сообщений:
62034

Репутация: 101

[+] [-]
Вне форума [Профиль] [ЛС]

Врата дракона / Long men fei jia-
  • Год выпуска: 2011
  • Страна: Китай
  • Жанр: боевик, приключения
  • Продолжительность: 02:02:23
  • Перевод: Любительский (двухголосый закадровый)
  • Субтитры: нет
-
  • Режиссер: Цуй Харк
  • Сценарий: Цуй Харк
  • Продюсер: Джеффри Чан, Нансун Ши, Цуй Харк, ...
  • Оператор: Санг Фай Чои
  • Композитор: Хин Гу, Хань Чианг Ли, Вэй Лэп Ву
  • Художник: Чунг Мэн Йи, Бен Лан, Хсуан-у Лай
  • Монтаж: Чи Вэй Яу
- -
  • Описание: Согласно древней легенде, каждые 60 лет сильнейшая песчаная буря смывает песок, под которым спрятан Золотой город, полный сокровищ. В ожидании бури в гостинице Врата Дракона собирается разномастная компания охотников за сокровищами Золотого города. Тут и император одной из китайских провинций и тайный министр другой провинции и две банды наемных убийц. Все они жаждут завладеть сокровищами, а ситуация усложняется тем что кое у кого из постояльцев отеля есть личные счеты друг к другу. Приключения начинаются!
--
  • Бюджет: $35 000 000
  • Сборы в США: $170 276
  • Сборы в мире: + $68 000 000 = $68 170 276
  • Зрители: Китай 12 млн
  • Премьера (мир): 15 декабря 2011, ...
  • Премьера (РФ): 21 февраля 2013, «Каскад» 3D
  • Релиз на DVD: 30 апреля 2013, «Флагман-Трейд», ...
-
  • Рейтинг MPAA: Лицам до 17 лет обязательно присутствие взрослого
--
  • Рейтинг:
--
  • Качество: BDRip-AVC
  • Формат: MKV
  • Видео кодек: AVC
  • Аудио кодеk: AC3
  • Видео: 1920x1080 (16:9), 23.976 fps, AVC, 11.0 Mbps
  • Аудио: Русский: AC3, 256 Kbps, 48.0 KHz, 2 ch/ двухголосый [Чип и Дейл]
    Русский: AC3, 448 Kbps, 48.0 KHz, 2 ch/ одноголосый (Татуированный Монах)-
  • Формат 3D: Half SideBySide /Горизонтальная анаморфная стереопара
  • Порядок ракурсов: левый ракурс первый
-

МедиаИнфо

Код: copyText_writeLink('this.parentNode.parentNode.nextSibling.nextSibling'); General
Complete name : Flying Swords Of Dragon Gate.2011.1080p.mkv
Format : Matroska
File size : 10.2 GiB
Duration : 2h 2mn
Overall bit rate : 11.9 Mbps
Movie name : Flying Swords Of Dragon Gate.2011.1080p.3D.HSBS.H264. (marik05)
Encoded date : UTC 2012-04-11 05:28:26
Writing application : mkvmerge v3.4.0 ('Rapunzel') сборка от May 15 2010 09:38:20
Writing library : libebml v0.8.0 + libmatroska v0.9.0
Video
ID : 1
Format : AVC
Format/Info : Advanced Video Codec
Format profile : [url=mailto:High@L4.1]High@L4.1[/url]
Format settings, CABAC : Yes
Format settings, ReFrames : 4 frames
Format settings, GOP : M=4, N=32
Muxing mode : Container profile=Unknown@4.1
Codec ID : V_MPEG4/ISO/AVC
Duration : 2h 2mn
Bit rate : 11.0 Mbps
Width : 1 920 pixels
Height : 1 080 pixels
Display aspect ratio : 16:9
Frame rate : 23.976 fps
Color space : YUV
Chroma subsampling : 4:2:0
Bit depth : 8 bits
Scan type : Progressive
Bits/(Pixel*Frame) : 0.221
Stream size : 9.40 GiB (92%)
Writing library : x264 core 120 r2120 0c7dab9
Encoding settings : cabac=1 / ref=4 / deblock=1:-3:-3 / analyse=0x3:0x113 / me=umh / subme=9 / psy=1 / psy_rd=1.00:0.15 / mixed_ref=1 / me_range=16 / chroma_me=1 / trellis=1 / 8x8dct=1 / cqm=0 / deadzone=21,11 / fast_pskip=1 / chroma_qp_offset=-3 / threads=18 / sliced_threads=0 / nr=0 / decimate=1 / interlaced=0 / bluray_compat=0 / constrained_intra=0 / bframes=3 / b_pyramid=2 / b_adapt=1 / b_bias=0 / direct=3 / weightb=1 / open_gop=0 / weightp=2 / keyint=250 / keyint_min=23 / scenecut=40 / intra_refresh=0 / rc_lookahead=40 / rc=crf / mbtree=1 / crf=17.0 / qcomp=0.60 / qpmin=10 / qpmax=69 / qpstep=4 / ip_ratio=1.40 / aq=1:1.00
Language : English
Audio #1
ID : 2
Format : AC-3
Format/Info : Audio Coding 3
Mode extension : CM (complete main)
Codec ID : A_AC3
Duration : 2h 2mn
Bit rate mode : Constant
Bit rate : 256 Kbps
Channel(s) : 2 channels
Channel positions : Front: L R
Sampling rate : 48.0 KHz
Bit depth : 16 bits
Stream size : 224 MiB (2%)
Title : DVO [Чип и Дейл]двухголосный
Language : Russian
Audio #2
ID : 3
Format : AC-3
Format/Info : Audio Coding 3
Mode extension : CM (complete main)
Codec ID : A_AC3
Duration : 2h 2mn
Bit rate mode : Constant
Bit rate : 448 Kbps
Channel(s) : 2 channels
Channel positions : Front: L R
Sampling rate : 48.0 KHz
Bit depth : 16 bits
Stream size : 392 MiB (4%)
Title : VO Монах (одноголосый)
Language : Russian
Menu
00:00:00.000 : en:00:00:00.000
00:09:24.063 : en:00:09:24.063
00:20:16.841 : en:00:20:16.841
00:28:38.675 : en:00:28:38.675
00:41:10.259 : en:00:41:10.259
00:50:54.009 : en:00:50:54.009
01:02:39.547 : en:01:02:39.547
01:11:18.441 : en:01:11:18.441
01:20:15.728 : en:01:20:15.728
01:31:08.963 : en:01:31:08.963
01:44:58.751 : en:01:44:58.751
01:53:41.023 : en:01:53:41.023
- -© Оформление by Boika- -Не уходите с раздачи, помогайте раздавать! Скачал сам, помоги скачать другим раздавая скачанное. Помните, что файлы раздачи размещены у других пользователей, таких же качающих или уже скачавших как и Вы, поэтому если кто-то удалит файлы и торрент-файл из клиента, то велика возможность того, что материалов раздачи не останется ни у кого и другие, такие же участники сети не смогут их скачать. Давайте начинать перемены с себя.-

_________________
Показать сообщения:    

Текущее время: Сегодня 20:28

Часовой пояс: GMT



Вы не можете начинать темы
Вы не можете отвечать на сообщения
Вы не можете редактировать свои сообщения
Вы не можете удалять свои сообщения
Вы не можете голосовать в опросах
Вы не можете прикреплять файлы к сообщениям
Вы не можете скачивать файлы
Наши партнеры: интернет магазин Ивановского трикотажа textilla.ru