Ивановский Торрент трекер
Яндекс.Погода
 

[Цитировать]
димитри37

Во саду ли, в огороде
Год выпуска: 2012
Производство: Россия, ООО "Тесей"
Жанр: Мелодрама
Продолжительность: 03:00:00
Субтитры: Отсутствуют
Режиссёр: Максим Демченко
В ролях: Наталья Рогожкина, Владимир Литвинов, Александра Кривошей, Иван Краско, Татьяна Мархель, Лариса Маршалова, Елена Дубровская, Максим Демченко, Алексей Сенчило, Александр Островский и другие.
Описание: Сорокопятилетняя «баба-ягодка» Валентина живет в деревне. Она пользуется любовью и уважением односельчан. Но она одинока – ее муж ушел от нее много лет назад, а дочь-красавица учится в областном центре и приезжает домой редко. Неожиданно на стихийном митинге односельчане смещают проворовавшегося Главу сельсовета и выбирают на его место Валентину. И хотя она только временно исполняет обязанности Главы, Валентина не привыкла работать вполсилы. Она со свойственной ей смекалкой и находчивостью решает ворох навалившихся проблем по благоустройству деревни, даже привозит нового фельдшера Николая и восстанавливает медпункт. Однако бывший Глава, продажный чиновник из районного центра и бухгалтер, который так и остался работать в сельсовете, хотят сместить Валентину и повесить на нее все недостачи, образовавшиеся во время правления бывшего Главы. Дело чуть не доходит до тюрьмы. А тут еще возвращается дочь Ольга и заявляет, что решила бросить учебу. А вскоре выясняется, что Ольга беременна… Валентине приходится нелегко, но, благодаря своей стойкости, жизнерадостности и смекалке, а также Николаю, с которым у нее завязываются романтические отношения, ей удается с честью выйти из всех испытаний.

Рип чистый. Без посторонних надписей. Выкладывается как есть.
Качество: HDTV 1080i
Контейнер: TS
Видео кодек: AVC
Аудио кодек: MP2
Видео: 1920x1080 (16:9) 25.000 fps 7 838 Kbps, 0.151 bit/pixel
Аудио: MPEG Audio 48000Hz stereo 192 Кбит/сек

Скриншоты


MI

GeneralID : 1 (0x1)Complete name : J:\ВЫКЛАДКА\HDTV\Сериалы\Во саду ли, в огороде (2012, Мелодрама, HDTV) (MYDIMKA)\01 серия.tsFormat : MPEG-TSFile size : 4.90 GiBDuration : 1h 23mnOverall bit rate mode : VariableOverall bit rate : 8 456 Kbps
VideoID : 2911 (0xB5F)Menu ID : 1 (0x1)Format : AVCFormat/Info : Advanced Video CodecFormat profile : High@L4.0Format settings, CABAC : YesFormat settings, ReFrames : 3 framesCodec ID : 27Duration : 1h 23mnBit rate : 7 844 KbpsWidth : 1 920 pixelsHeight : 1 080 pixelsDisplay aspect ratio : 16:9Frame rate : 25.000 fpsColor space : YUVChroma subsampling : 4:2:0Bit depth : 8 bitsScan type : MBAFFBits/(Pixel*Frame) : 0.151Stream size : 4.55 GiB (93%)
AudioID : 2912 (0xB60)Menu ID : 1 (0x1)Format : MPEG AudioFormat version : Version 1Format profile : Layer 2Codec ID : 3Duration : 1h 23mnBit rate mode : ConstantBit rate : 192 KbpsChannel(s) : 2 channelsSampling rate : 48.0 KHzCompression mode : LossyStream size : 114 MiB (2%)Language : Russian
Показать сообщения:    

Текущее время: 20-Окт 13:28

Часовой пояс: UTC - 1


Вы не можете начинать темы
Вы не можете отвечать на сообщения
Вы не можете редактировать свои сообщения
Вы не можете удалять свои сообщения
Вы не можете голосовать в опросах
Вы не можете прикреплять файлы к сообщениям
Вы не можете скачивать файлы

!ВНИМАНИЕ!
Сайт не предоставляет электронные версии произведений, а занимается лишь коллекционированием и каталогизацией ссылок, присылаемых и публикуемых на форуме нашими читателями. Если вы являетесь правообладателем какого-либо представленного материала и не желаете, чтобы ссылка на него находилась в нашем каталоге, свяжитесь с нами, и мы незамедлительно удалим ее. Файлы для обмена на трекере предоставлены пользователями сайта, и администрация не несет ответственности за их содержание. Просьба не заливать файлы, защищенные авторскими правами, а также файлы нелегального содержания!