Важное объявление!
У Нас Все раздачи мультитрекерные, при нуле пиров в релизах, можете смело вставать на закачку!
 
Автор Сообщение

HUNTER

Стаж:
4 года 7 месяцев
Сообщений:
61554

Репутация: 101

[+] [-]
Вне форума [Профиль] [ЛС]

Вояджер. Полёт за пределы Солнечной системы / Voyager. To the Final Frontier
Дата/Год выпуска: 2012
Страна: Великобритания
Жанр: Документальный, космонавтика
Продолжительность: 00:59:00
Перевод: Одноголосый закадровый
Русские субтитры: нет
Оригинальная аудиодорожка: нет
Режиссер: Кристофер Райли / Christopher Riley
Описание: Это документально-исследовательский фильм о Солнечной системе и пространстве за ней. Программа NASA отправила в космос два специальных исследовательских корабля. Они не нуждаются в человеческом присутствии и за всеми исследованиями можно следить с Земли. Сколько тайн скрывает в себе космос? Какие угрозы для нашей планеты, скрываются в недоступных для человечества просторах? Мы увидим исследование всех планет нашей солнечной системы, и даже заглянем за её границы…
Семпл: http://sendfile.su/1126840
качество: HDTVRip
формат: MKV
Видео: x264 1024x576 25fps 1255 Kbps
Аудио: AC3 48000Hz stereo 192 Kbps

MediaInfo

GeneralUnique ID : 186456803489780895928207513016036683940 (0x8C46462C91AC7840BB0D6795A702F0A4)Complete name : C:\Voyager - To the Final Frontier 576p.mkvFormat : MatroskaFormat version : Version 2File size : 623 MiBDuration : 59mn 0sOverall bit rate : 1 477 KbpsEncoded date : UTC 2012-12-03 21:20:59Writing application : mkvmerge v5.6.0 ('Kenya Kane') built on May 27 2012 16:44:04Writing library : libebml v1.2.3 + libmatroska v1.3.0
VideoID : 1Format : AVCFormat/Info : Advanced Video CodecFormat profile : High@L3.1Format settings, CABAC : YesFormat settings, ReFrames : 4 framesCodec ID : V_MPEG4/ISO/AVCDuration : 59mn 0sBit rate : 1 255 KbpsWidth : 1 024 pixelsHeight : 576 pixelsDisplay aspect ratio : 16:9Frame rate mode : ConstantFrame rate : 25.000 fpsColor space : YUVChroma subsampling : 4:2:0Bit depth : 8 bitsScan type : ProgressiveBits/(Pixel*Frame) : 0.085Stream size : 530 MiB (85%)Writing library : x264 core 128 r2216 198a7eaEncoding settings : cabac=1 / ref=4 / deblock=1:0:0 / analyse=0x3:0x113 / me=umh / subme=9 / psy=1 / psy_rd=1.00:0.00 / mixed_ref=1 / me_range=16 / chroma_me=1 / trellis=1 / 8x8dct=1 / cqm=0 / deadzone=21,11 / fast_pskip=0 / chroma_qp_offset=-2 / threads=3 / lookahead_threads=1 / sliced_threads=0 / nr=0 / decimate=1 / interlaced=0 / bluray_compat=0 / constrained_intra=0 / bframes=3 / b_pyramid=2 / b_adapt=1 / b_bias=0 / direct=1 / weightb=1 / open_gop=0 / weightp=2 / keyint=250 / keyint_min=15 / scenecut=40 / intra_refresh=0 / rc_lookahead=40 / rc=crf / mbtree=1 / crf=22.0 / qcomp=0.60 / qpmin=0 / qpmax=69 / qpstep=4 / ip_ratio=1.40 / aq=1:1.00Language : EnglishDefault : YesForced : No
AudioID : 2Format : AC-3Format/Info : Audio Coding 3Mode extension : CM (complete main)Format settings, Endianness : BigCodec ID : A_AC3Duration : 59mn 0sBit rate mode : ConstantBit rate : 192 KbpsChannel(s) : 2 channelsChannel positions : Front: L RSampling rate : 48.0 KHzBit depth : 16 bitsCompression mode : LossyStream size : 81.0 MiB (13%)Default : YesForced : No

Скриншоты

Фильм создан на основе передач BBC. Horizon:
Encounter With Jupiter (1980)
Resolution On Saturn, 1: The Rings (1981)
Resolution On Saturn, 2: The Moons (1981)
Uranus Encounter (1986)
From Earth To Miranda (1990)
Encounter With Neptune (1990)

_________________
Показать сообщения:    

Текущее время: Сегодня 14:38

Часовой пояс: GMT



Вы не можете начинать темы
Вы не можете отвечать на сообщения
Вы не можете редактировать свои сообщения
Вы не можете удалять свои сообщения
Вы не можете голосовать в опросах
Вы не можете прикреплять файлы к сообщениям
Вы не можете скачивать файлы
Наши партнеры: интернет магазин Ивановского трикотажа textilla.ru