Важное объявление!
У Нас Все раздачи мультитрекерные, при нуле пиров в релизах, можете смело вставать на закачку!
Статистика раздачи
Размер:     |    Зарегистрирован:     |    Скачан:     |   
Нет
 
     
 
 
Автор Сообщение

HUNTER

Стаж:
5 лет
Сообщений:
68033

Репутация: 101

[+] [-]
Вне форума [Профиль] [ЛС]

-Восхождение Юпитер / Jupiter Ascending-«Expand your universe»
-Страна: США, Великобритания
Студия: Aaron Sims Company, Village Roadshow Pictures, Warner Bros. Pictures
Жанр: фантастика, боевик, приключения
Год выпуска: 2015
Мировая премьера: 27 января 2015
Российская премьера: 5 февраля 2015, «Каро-Премьер» 3D
Дата выхода DVD: 14 мая 2015, «CP Дистрибуция»
Дата выхода Blu-Ray: 14 мая 2015, «CP Дистрибуция» 3D
Продолжительность: 02:02:21
Перевод: Профессиональный (дублированный) [Лицензия]
Cубтитры: русские, английские, чешские, эстонские, латышские, литовские, португальские
Оригинальная аудиодорожка: английский-Режиссер: Энди Вачовски, Лана Вачовски / Andy Wachowski, Lana Wachowski-В ролях: Мила Кунис, Ченнинг Татум, Дуглас Бут, Шон Бин, Эдди Редмэйн, Джеймс Д’Арси, Терри Гиллиам, Ванесса Кирби, Мария Дойл Кеннеди, Пэ Ду На-Описание: Юпитер Джонс родилась под ночным небом, и все знаки предсказывали, что девочке предстоят великие свершения. Юпитер выросла и каждый день видит во сне звезды, но просыпается в жесткой реальности, где она работает уборщицей и моет туалеты. Личная жизнь Юпитер тоже оставляет желать лучшего, пока девушка не встречает Кейна. Кейн, бывший военный охотник, прибывает на Землю, чтобы отыскать Юпитер и раскрыть девушке ее истинное предназначение. Благодаря своим генетическим особенностям Юпитер становится претенденткой невероятного наследия, способного изменить равновесие во Вселенной.-Бонусы: Юпитер Джонс: судьба внутри нас. Узнайте как Юпитер Джонс превратилась из эмигрантки в королеву Вселенной, Восхождение Юпитер: Генетическое скрещивание. Посмотрите как создатели фильма работали над фантастическими гибридами человека и животного- -Качество: DVD9 R5
Формат: DVD-Video
Видео кодек: MPEG2
Аудио кодек: AC3
Видео: PAL 16:9 (720x576(0.564)) MPEG Video, 25,000 кадр/сек, 5848 Кбит/сек
Аудио #1: English (Dolby AC3, 6 ch) 384 Кбит/сек, 48,0 КГц
Аудио #2: Czech(Ceske) (Dolby AC3, 6 ch) 384 Кбит/сек, 48,0 КГц
Аудио #3: Russian (Dolby AC3, 6 ch) 384 Кбит/сек, 48,0 КГц
Аудио #4: Ukrainian (Dolby AC3, 6 ch) 384 Кбит/сек, 48,0 КГц
Аудио #5: English (Dolby AC3, 2 ch) 192 Кбит/сек, 48,0 КГц--

DVDInfo

Title:
Size: 6.91 Gb ( 7 244 766 KBytes ) - DVD-9
Enabled regions: 1, 2, 3, 4, 5, 6, 7, 8
VTS_01 :
Play Length: 02:02:21+00:06:39+00:09:59
Video: PAL 16:9 (720x576) VBR, Auto Pan&Scan
Audio:
English (Dolby AC3, 6 ch)
Czech(Ceske) (Dolby AC3, 6 ch)
Russian (Dolby AC3, 6 ch)
Ukrainian (Dolby AC3, 6 ch)
English (Dolby AC3, 2 ch)
Subtitles:
English
Czech(Ceske)
Estonian
Latvian
Lithuanian
Portugues
Russian
Czech(Ceske)
Russian
Ukrainian
VTS_02 :
Play Length: 00:00:10
Video: PAL 16:9 (720x576) VBR, Auto Pan&Scan
Audio:
Not specified (Dolby AC3, 6 ch)
Subtitles:
Not specified
Menu Video:
PAL 16:9 (720x576) VBR
Auto Letterboxed
Menu Subtitles:
Not specified
Menu Language Unit :
Root Menu

MediaInfo

Общее
Полное имя : H:\Новинки 2015\Voshozhdenie.Jupiter.2015.DVD9\VIDEO_TS\VTS_01_2.VOB
Формат : MPEG-PS
Размер файла : 1024 Мбайт
Продолжительность : 19 м.
Режим общего битрейта : Переменный
Общий поток : 7534 Кбит/сек
Видео
Идентификатор : 224 (0xE0)
Формат : MPEG Video
Версия формата : Version 2
Профиль формата : Main@Main
Параметр BVOP формата : Да
Параметр матрицы формата : Выборочная
Параметр GOP формата : Variable
Структура изображения : Frame
Продолжительность : 18 м.
Вид битрейта : Переменный
Битрейт : 5848 Кбит/сек
Максимальный битрейт : 7500 Кбит/сек
Ширина : 720 пикселей
Высота : 576 пикселей
Соотношение сторон : 16:9
Частота кадров : 25,000 кадров/сек
Стандарт вещания : PAL
Цветовое пространство : YUV
Субдискретизация насыщенности : 4:2:0
Битовая глубина : 8 бит
Тип развёртки : Чересстрочная
Порядок развёртки : Верхнее поле первое
Метод сжатия : С потерями
Бит/(Пиксели*Кадры) : 0.564
Временной код первого кадра : 01:19:39:10
Оригинал временного кода : Group of pictures header
GOP, открыто/закрыто : Закрыто
Размер потока : 795 Мбайт (78%)
Аудио #1
Идентификатор : 189 (0xBD)-128 (0x80)
Формат : AC-3
Формат/Информация : Audio Coding 3
Расширение режима : CM (complete main)
Параметр Endianness формата : Big
Режим смешивания : DVD-Video
Продолжительность : 19 м.
Вид битрейта : Постоянный
Битрейт : 384 Кбит/сек
Каналы : 6 каналов
Расположение каналов : Front: L C R, Side: L R, LFE
Частота : 48,0 КГц
Метод сжатия : С потерями
Задержка видео : -472 мс.
Размер потока : 52,2 Мбайт (5%)
Аудио #2
Идентификатор : 189 (0xBD)-129 (0x81)
Формат : AC-3
Формат/Информация : Audio Coding 3
Расширение режима : CM (complete main)
Параметр Endianness формата : Big
Режим смешивания : DVD-Video
Продолжительность : 19 м.
Вид битрейта : Постоянный
Битрейт : 384 Кбит/сек
Каналы : 6 каналов
Расположение каналов : Front: L C R, Side: L R, LFE
Частота : 48,0 КГц
Метод сжатия : С потерями
Задержка видео : -440 мс.
Размер потока : 52,2 Мбайт (5%)
Аудио #3
Идентификатор : 189 (0xBD)-130 (0x82)
Формат : AC-3
Формат/Информация : Audio Coding 3
Расширение режима : CM (complete main)
Параметр Endianness формата : Big
Режим смешивания : DVD-Video
Продолжительность : 19 м.
Вид битрейта : Постоянный
Битрейт : 384 Кбит/сек
Каналы : 6 каналов
Расположение каналов : Front: L C R, Side: L R, LFE
Частота : 48,0 КГц
Метод сжатия : С потерями
Задержка видео : -440 мс.
Размер потока : 52,2 Мбайт (5%)
Аудио #4
Идентификатор : 189 (0xBD)-131 (0x83)
Формат : AC-3
Формат/Информация : Audio Coding 3
Расширение режима : CM (complete main)
Параметр Endianness формата : Big
Режим смешивания : DVD-Video
Продолжительность : 19 м.
Вид битрейта : Постоянный
Битрейт : 384 Кбит/сек
Каналы : 6 каналов
Расположение каналов : Front: L C R, Side: L R, LFE
Частота : 48,0 КГц
Метод сжатия : С потерями
Задержка видео : -440 мс.
Размер потока : 52,2 Мбайт (5%)
Текст #1
Идентификатор : 189 (0xBD)-32 (0x20)
Формат : RLE
Формат/Информация : Run-length encoding
Режим смешивания : DVD-Video
Продолжительность : 18 м.
Задержка видео : 1 с. 360 мс.
Текст #2
Идентификатор : 189 (0xBD)-33 (0x21)
Формат : RLE
Формат/Информация : Run-length encoding
Режим смешивания : DVD-Video
Продолжительность : 18 м.
Задержка видео : 1 с. 360 мс.
Текст #3
Идентификатор : 189 (0xBD)-34 (0x22)
Формат : RLE
Формат/Информация : Run-length encoding
Режим смешивания : DVD-Video
Продолжительность : 18 м.
Задержка видео : 1 с. 360 мс.
Текст #4
Идентификатор : 189 (0xBD)-35 (0x23)
Формат : RLE
Формат/Информация : Run-length encoding
Режим смешивания : DVD-Video
Продолжительность : 18 м.
Задержка видео : 1 с. 360 мс.
Текст #5
Идентификатор : 189 (0xBD)-36 (0x24)
Формат : RLE
Формат/Информация : Run-length encoding
Режим смешивания : DVD-Video
Продолжительность : 18 м.
Задержка видео : 1 с. 360 мс.
Текст #6
Идентификатор : 189 (0xBD)-37 (0x25)
Формат : RLE
Формат/Информация : Run-length encoding
Режим смешивания : DVD-Video
Продолжительность : 18 м.
Задержка видео : 1 с. 360 мс.
Текст #7
Идентификатор : 189 (0xBD)-38 (0x26)
Формат : RLE
Формат/Информация : Run-length encoding
Режим смешивания : DVD-Video
Продолжительность : 18 м.
Задержка видео : 1 с. 360 мс.

Скриншоты меню

Скриншоты фильма

Скриншоты доп. материалов


-
-Раздача от группы:

_________________
Показать сообщения:    

Текущее время: Сегодня 06:59

Часовой пояс: GMT



Вы не можете начинать темы
Вы не можете отвечать на сообщения
Вы не можете редактировать свои сообщения
Вы не можете удалять свои сообщения
Вы не можете голосовать в опросах
Вы не можете прикреплять файлы к сообщениям
Вы не можете скачивать файлы