Ивановский Торрент трекер
Яндекс.Погода
 

[Цитировать]
HUNTER

Восход Победы. Курская буря
Год выпуска: 2013
Страна: Россия
Жанр: исторический
Продолжительность: 00:43:38
Перевод: Не требуется
Русские субтитры: нет
Режиссер: Юрий Линкевич
Описание: 5 июля исполняется 70 лет с начала крупнейшего сражения всей Второй мировой войны, вошедшего в историю под названием "Курская дуга". 50 дней длилась эта невиданная битва, которая решительным образом изменила ход событий Великой Отечественной.
Авторы фильма впервые восстанавливают подлинную картину событий, основанную на свидетельствах участников сражения, новейших исследованиях историков и редкой, а порой уникальной, хронике, в том числе личных съемках немецких солдат и офицеров.
В высшем советском командовании сталкивались два мнения о характере действий: наступать или строить оборону с последующим контрнаступлением нескольких фронтов. Впервые в фильме рассказывается о примечательном эпизоде, характеризующем градус споров. Офицер-шифровальщик случайно подслушал диалог Сталина и Жукова с ненормативной лексикой в устах маршала. Лексика подействовала, Верховный главнокомандующий уступил младшему по должности.
Герои фильма – фронтовики, участники сражения под Прохоровкой и историки - восстанавливают правду об этом эпизоде Курской битвы. Он предстает не только как небывалый в истории встречный бой двух танковых армад, а как поворотный момент в психологии противоборствующих солдатских масс: немцы дрогнули, наши почувствовали вкус победы.
В цифрах потери Красной Армии оказались больше потерь вермахта. Но не все измеряется цифрами. Рассказы ветеранов, звучащие в фильме, порой страшные в своей достоверности, показывают подлинную картину войны в ее человеческом измерении. На Курской дуге "сгорели" элитные войска Германии, а с ними и хваленый дух солдат Третьего рейха. Стало ясно – победа будет за нами!
Автор: Александр Коршунов
качество: SATRip
формат: AVI
Видео: 720x416 (1.73:1), 25 fps, XviD MPEG-4 ~1644 kbps avg, 0.22 bit/pixel
Аудио: 48 kHz, MPEG Layer 3, 2 ch, ~128.00 kbps avg

MediaInfo

Формат : AVI
Формат/Информация : Audio Video Interleave
Размер файла : 557 Мбайт
Продолжительность : 43 м.
Общий поток : 1783 Кбит/сек
Библиотека кодирования : VirtualDub build 34670/release
Видео
Идентификатор : 0
Формат : MPEG-4 Visual
Профиль формата : Advanced Simple@L5
Параметр BVOP формата : 2
Параметр QPel формата : Нет
Параметр GMC формата : Без точки перехода
Параметр матрицы формата : Default (MPEG)
Режим смешивания : Сжатый битовый поток
Идентификатор кодека : XVID
Идентификатор кодека/Подсказка : XviD
Продолжительность : 43 м.
Битрейт : 1645 Кбит/сек
Ширина : 720 пикселей
Высота : 416 пикселей
Соотношение сторон : 1,731
Частота кадров : 25,000 кадров/сек
Цветовое пространство : YUV
Субдискретизация насыщенности : 4:2:0
Битовая глубина : 8 бит
Тип развёртки : Прогрессивная
Метод сжатия : С потерями
Бит/(Пиксели*Кадры) : 0.220
Размер потока : 514 Мбайт (92%)
Библиотека кодирования : XviD 64
Аудио
Идентификатор : 1
Формат : MPEG Audio
Версия формата : Version 1
Профиль формата : Layer 3
Режим : Joint stereo
Идентификатор кодека : 55
Идентификатор кодека/Подсказка : MP3
Продолжительность : 43 м.
Вид битрейта : Постоянный
Битрейт : 128 Кбит/сек
Каналы : 2 канала
Частота : 48,0 КГц
Метод сжатия : С потерями
Размер потока : 40,0 Мбайт (7%)
Выравнивание : Разделение по промежуткам
Продолжительность промежутка : 40 мс. (1,00 видеокадр)
Время предзагрузки промежутка : 500 мс.
Библиотека кодирования : LAME3.99.5

Скриншоты



Показать сообщения:    

Текущее время: 15-Дек 12:21

Часовой пояс: UTC ± 0


Вы не можете начинать темы
Вы не можете отвечать на сообщения
Вы не можете редактировать свои сообщения
Вы не можете удалять свои сообщения
Вы не можете голосовать в опросах
Вы не можете прикреплять файлы к сообщениям
Вы не можете скачивать файлы

!ВНИМАНИЕ!
Сайт не предоставляет электронные версии произведений, а занимается лишь коллекционированием и каталогизацией ссылок, присылаемых и публикуемых на форуме нашими читателями. Если вы являетесь правообладателем какого-либо представленного материала и не желаете, чтобы ссылка на него находилась в нашем каталоге, свяжитесь с нами, и мы незамедлительно удалим ее. Файлы для обмена на трекере предоставлены пользователями сайта, и администрация не несет ответственности за их содержание. Просьба не заливать файлы, защищенные авторскими правами, а также файлы нелегального содержания!