Ивановский Торрент трекер
Яндекс.Погода
 

[Цитировать]
HUNTER

Восход Победы. Курская буря
Год выпуска: 2013
Страна: Россия
Жанр: Документальный
Продолжительность: 00:43:39
Перевод: Не требуется
Русские субтитры: нет
Режиссер: Юрий Линкевич
Описание: 5 июля исполняется 70 лет с начала крупнейшего сражения всей Второй мировой войны, вошедшего в историю под названием "Курская дуга". 50 дней длилась эта невиданная битва, которая решительным образом изменила ход событий Великой Отечественной. Авторы фильма впервые восстанавливают подлинную картину событий, основанную на свидетельствах участников сражения, новейших исследованиях историков и редкой, а порой уникальной, хронике, в том числе личных съемках немецких солдат и офицеров. В высшем советском командовании сталкивались два мнения о характере действий: наступать или строить оборону с последующим контрнаступлением нескольких фронтов. Впервые в фильме рассказывается о примечательном эпизоде, характеризующем градус споров. Офицер-шифровальщик случайно подслушал диалог Сталина и Жукова с ненормативной лексикой в устах маршала. Лексика подействовала, Верховный главнокомандующий уступил младшему по должности. Герои фильма – фронтовики, участники сражения под Прохоровкой и историки - восстанавливают правду об этом эпизоде Курской битвы. Он предстает не только как небывалый в истории встречный бой двух танковых армад, а как поворотный момент в психологии противоборствующих солдатских масс: немцы дрогнули, наши почувствовали вкус победы. В цифрах потери Красной Армии оказались больше потерь вермахта. Но не все измеряется цифрами. Рассказы ветеранов, звучащие в фильме, порой страшные в своей достоверности, показывают подлинную картину войны в ее человеческом измерении. На Курской дуге "сгорели" элитные войска Германии, а с ними и хваленый дух солдат Третьего рейха. Стало ясно – победа будет за нами!
Доп. информация: Релиз -

Рип чистый. Без посторонних надписей. Выкладывается как есть.
Качество: DVB
Формат: MPG
Видео кодек: MPG2
Аудио кодек: MP2
Видео: 720x576 @ 768x576 (Forced 4:3 PAL) 25.00fps, Interlaced, 5 017 Kbps, 0.484 bit/pixel
Аудио: MPEG Audio 48000Hz stereo 192 Кбит/сек

Скриншоты



Скринлист

MI

GeneralComplete name : D:\Выкладка\Восход Победы. Курская буря (2013, Документальный, DVB) (MYDIMKA).mpgFormat : MPEG-PSFile size : 1.87 GiBDuration : 43mn 39sOverall bit rate mode : VariableOverall bit rate : 6 118 Kbps
VideoID : 224 (0xE0)Format : MPEG VideoFormat version : Version 2Format profile : Main@MainFormat settings, BVOP : YesFormat settings, Matrix : CustomFormat settings, GOP : VariableDuration : 43mn 39sBit rate mode : VariableBit rate : 5 804 KbpsMaximum bit rate : 15.0 MbpsWidth : 720 pixelsHeight : 576 pixelsDisplay aspect ratio : 4:3Frame rate : 25.000 fpsStandard : PALColor space : YUVChroma subsampling : 4:2:0Bit depth : 8 bitsScan type : InterlacedScan order : Top Field FirstCompression mode : LossyBits/(Pixel*Frame) : 0.560Time code of first frame : 00:00:00:00Time code source : Group of pictures headerStream size : 1.77 GiB (95%)
AudioID : 192 (0xC0)Format : MPEG AudioFormat version : Version 1Format profile : Layer 2Duration : 43mn 39sBit rate mode : ConstantBit rate : 192 KbpsChannel(s) : 2 channelsSampling rate : 48.0 KHzCompression mode : LossyDelay relative to video : -14msStream size : 59.9 MiB (3%)
Показать сообщения:    

Текущее время: 25-Сен 10:47

Часовой пояс: UTC - 1


Вы не можете начинать темы
Вы не можете отвечать на сообщения
Вы не можете редактировать свои сообщения
Вы не можете удалять свои сообщения
Вы не можете голосовать в опросах
Вы не можете прикреплять файлы к сообщениям
Вы не можете скачивать файлы

!ВНИМАНИЕ!
Сайт не предоставляет электронные версии произведений, а занимается лишь коллекционированием и каталогизацией ссылок, присылаемых и публикуемых на форуме нашими читателями. Если вы являетесь правообладателем какого-либо представленного материала и не желаете, чтобы ссылка на него находилась в нашем каталоге, свяжитесь с нами, и мы незамедлительно удалим ее. Файлы для обмена на трекере предоставлены пользователями сайта, и администрация не несет ответственности за их содержание. Просьба не заливать файлы, защищенные авторскими правами, а также файлы нелегального содержания!