Ивановский Торрент трекер
Яндекс.Погода
 

[Цитировать]
HUNTER

Восход победы. Днепр - крах "Восточного вала"
Год выпуска: 2013
Страна: Россия
Жанр: Документальный
Продолжительность: 00:43:54
Перевод: Отсутствует
Русские субтитры: нет
Описание: После победы в величайшей Курской битве Красная армия не стала почивать на лаврах, а развивала общее наступление - теперь уже на территории левобережной Украины. Немцы всеми силами старались затормозить этот натиск и не пустить Красную армию за Днепр. Эта река, одна из крупнейших в Европе, должна была, по замыслу германских стратегов, стать естественной преградой на стремительном пути советских войск. Трудно найти водную преграду лучше: скорость течения - до двух метров в секунду, ширина – до 3,5 километра, а глубина – до 12 метров. Почти на всем протяжении реки правый берег намного выше низкого и плоского левого. Идеальная позиция для расстрела форсирующих Днепр красноармейцев. К тому же Адольф Гитлер еще в августе 43-го распорядился соорудить на западном берегу Днепра систему полевых укреплений под громким названием "Восточный вал". Фюрер планировал, что этот вал протянется от Азовского моря до Балтийского и наконец позволит его потрепанной армии перевести дух, собраться с силами и весной 44-го начать новое генеральное наступление.
Релиз группа: RiperAM
качество: SATRip
формат: AVI
Видео: 720x400 (1.80:1), 25 fps, DivX Codec 6.8.5/6.9.1 ~1500 kbps avg, 0.21 bit/pixel
Аудио: 48 kHz, MPEG Layer 3, 2 ch, ~192.00 kbps avg

MediaInfo

Формат : AVI
Формат/Информация : Audio Video Interleave
Размер файла : 535 Мбайт
Продолжительность : 43 м.
Общий поток : 1702 Кбит/сек
Библиотека кодирования : VirtualDub build 35491/release
Видео
Идентификатор : 0
Формат : MPEG-4 Visual
Параметр BVOP формата : 1
Параметр QPel формата : Нет
Параметр GMC формата : Без точки перехода
Параметр матрицы формата : Default (H.263)
Режим смешивания : Сжатый битовый поток
Идентификатор кодека : DX50
Идентификатор кодека/Подсказка : DivX 5
Продолжительность : 43 м.
Битрейт : 1500 Кбит/сек
Ширина : 720 пикселей
Высота : 400 пикселей
Соотношение сторон : 16:9
Частота кадров : 25,000 кадров/сек
Цветовое пространство : YUV
Субдискретизация насыщенности : 4:2:0
Битовая глубина : 8 бит
Тип развёртки : Прогрессивная
Метод сжатия : С потерями
Бит/(Пиксели*Кадры) : 0.208
Размер потока : 471 Мбайт (88%)
Библиотека кодирования : DivX 6.8.5 (UTC 2009-08-20)
Аудио
Идентификатор : 1
Формат : MPEG Audio
Версия формата : Version 1
Профиль формата : Layer 3
Режим : Joint stereo
Расширение режима : MS Stereo
Идентификатор кодека : 55
Идентификатор кодека/Подсказка : MP3
Продолжительность : 43 м.
Вид битрейта : Постоянный
Битрейт : 192 Кбит/сек
Каналы : 2 канала
Частота : 48,0 КГц
Метод сжатия : С потерями
Размер потока : 60,3 Мбайт (11%)
Выравнивание : Разделение по промежуткам
Продолжительность промежутка : 40 мс. (1,00 видеокадр)
Время предзагрузки промежутка : 500 мс.

Скриншоты



Показать сообщения:    

Текущее время: 15-Дек 14:07

Часовой пояс: UTC ± 0


Вы не можете начинать темы
Вы не можете отвечать на сообщения
Вы не можете редактировать свои сообщения
Вы не можете удалять свои сообщения
Вы не можете голосовать в опросах
Вы не можете прикреплять файлы к сообщениям
Вы не можете скачивать файлы

!ВНИМАНИЕ!
Сайт не предоставляет электронные версии произведений, а занимается лишь коллекционированием и каталогизацией ссылок, присылаемых и публикуемых на форуме нашими читателями. Если вы являетесь правообладателем какого-либо представленного материала и не желаете, чтобы ссылка на него находилась в нашем каталоге, свяжитесь с нами, и мы незамедлительно удалим ее. Файлы для обмена на трекере предоставлены пользователями сайта, и администрация не несет ответственности за их содержание. Просьба не заливать файлы, защищенные авторскими правами, а также файлы нелегального содержания!