Ивановский Торрент трекер
Яндекс.Погода
 

[Цитировать]
HUNTER

Восхитительные дети: Анлимитед / Безграничный: Хёбу Кёске / Zettai Karen Children: The Unlimited - Hyoubu Kyousuke
Страна: Япония
Год выпуска: 2013 г.
Жанр: приключения, мистика
Тип: TV
Продолжительность: 25 мин. серия
Режиссер: Игараси Тацуя
Студия: Manglobe Inc.
Описание: Обладатели сверхспособностей давно стали частью этого мира. Эсперы, как и обычные люди, бывают разные: кто живет для других, кто использует дар только для себя, а на остальных ему плевать. Чтобы удержать власть, успешно бороться с хитрыми преступниками и гениальными бунтарями, хозяева жизни из разных стран используют собственных одаренных – как взрослых, которых держат на крючке, так и детей, которыми легче управлять. Для «восхитительных детишек» Каору, Аой и Сихо, чьи приключения стали широко известны, мир, конечно, прост и понятен, но, может, у другой стороны тоже есть своя правда?
Когда-то Кёсукэ Хёбу тоже служил родной стране под началом любимого командира, за что благодарное Отечество наградило его – пулей в голову. Выжив и окрепнув в боях, Кёсукэ создал организацию ПАНДРА, выручил из беды немало сородичей и повел личную войну против тех, кто использует эсперов как расходный материал, как топливо для своих амбиций. Разумеется, власти объявили Хёбу террористом номер один, но среди обладателей дара отношение к мрачному одиночке иное, и даже «детишки» начали, похоже, кое-что понимать. А что же сам «ловец человеков»? А он в ходе вечной борьбы может лишь ждать и надеяться, что одна рыжая вырастет, поумнеет и станет, наконец, достойной его королевой! © Hollow, World Art
Качество: BDRip
Тип релиза: Без хардсаба
Формат видео: MKV
Наличие линковки: Нет
Релиз/Автор рипа: [YYDM-11FANS]
Видео: x264, 1280x720, 1108 kbps, 23,97 fpms, 8bit
Аудио: AAC, 170 kbps, 48 KHz, 2 ch Язык Японский
Субтитры: ASS, внешние Язык субтитров русский ; Перевод: BO3DYX
Подробные тех. данные
ОбщееФормат : MPEG-4Профиль формата : Base MediaИдентификатор кодека : isomРазмер файла : 224 МбайтПродолжительность : 24 м.Режим общего битрейта : ПеременныйОбщий поток : 1282 Кбит/секДата кодирования : UTC 2014-04-01 18:30:23Дата пометки : UTC 2014-04-01 18:30:23
ВидеоИдентификатор : 1Формат : AVCФормат/Информация : Advanced Video CodecПрофиль формата : High@L3.1Параметр CABAC формата : ДаПараметр ReFrames формата : 5 кадровИдентификатор кодека : avc1Идентификатор кодека/Информация : Advanced Video CodingПродолжительность : 24 м.Битрейт : 1108 Кбит/секМаксимальный битрейт : 9455 Кбит/секШирина : 1280 пикселейВысота : 720 пикселейСоотношение сторон : 16:9Режим частоты кадров : ПостоянныйЧастота кадров : 23,976 кадра/секЦветовое пространство : YUVСубдискретизация насыщенности : 4:2:0Битовая глубина : 8 битТип развёртки : ПрогрессивнаяБит/(Пиксели*Кадры) : 0.050Размер потока : 193 Мбайт (86%)Библиотека кодирования : x264 core 142 r2389 956c8d8Настройки программы : cabac=1 / ref=5 / deblock=1:-1:-1 / analyse=0x3:0x133 / me=umh / subme=10 / psy=1 / psy_rd=0.20:0.00 / mixed_ref=1 / me_range=64 / chroma_me=1 / trellis=2 / 8x8dct=1 / cqm=0 / deadzone=21,11 / fast_pskip=0 / chroma_qp_offset=1 / threads=18 / lookahead_threads=1 / sliced_threads=0 / nr=0 / decimate=1 / interlaced=0 / bluray_compat=0 / constrained_intra=0 / bframes=3 / b_pyramid=2 / b_adapt=2 / b_bias=0 / direct=3 / weightb=1 / open_gop=0 / weightp=2 / keyint=240 / keyint_min=22 / scenecut=40 / intra_refresh=0 / rc_lookahead=50 / rc=crf / mbtree=1 / crf=20.0 / qcomp=0.70 / qpmin=0 / qpmax=69 / qpstep=4 / ip_ratio=1.40 / aq=1:1.00Дата кодирования : UTC 2014-04-01 18:30:23Дата пометки : UTC 2014-04-01 18:30:26
АудиоИдентификатор : 2Формат : AACФормат/Информация : Advanced Audio CodecПрофиль формата : LCИдентификатор кодека : 40Продолжительность : 24 м.Вид битрейта : ПеременныйБитрейт : 170 Кбит/секМаксимальный битрейт : 209 Кбит/секКаналы : 2 каналаРасположение каналов : Front: L RЧастота : 48,0 КГцМетод сжатия : С потерямиРазмер потока : 29,7 Мбайт (13%)Дата кодирования : UTC 2014-04-01 18:00:04Дата пометки : UTC 2014-04-01 18:30:26
Список эпизодов
1. Paranormal Jailbreak: Schooler of Deadlock
2. The Melody of Assassination: Ghost of WW2
3. Cleanliness and Pollution: Queen not a Princess
4. Absolute Domain: Children Territory
5. Strangers: Portrait of the Family
6. Darkness, Run: As True as a Lie
7. ESP Unit Part One: Generation Zero Part I
8. ESP Unit Part Two: Generation Zero Part II
9. Catastrophe: Pandora`s Box Opens
10. The Distant Paradise: Original Sin
11. The Two Within the Storm: Outlaws
12. To the Future: Last Resolution
Отличия
Ich Lauf - там 2 серии и 1080p.
Mototsuwa - там 1080p, тут 720p
Скриншоты
Показать сообщения:    

Текущее время: 25-Сен 08:56

Часовой пояс: UTC - 1


Вы не можете начинать темы
Вы не можете отвечать на сообщения
Вы не можете редактировать свои сообщения
Вы не можете удалять свои сообщения
Вы не можете голосовать в опросах
Вы не можете прикреплять файлы к сообщениям
Вы не можете скачивать файлы

!ВНИМАНИЕ!
Сайт не предоставляет электронные версии произведений, а занимается лишь коллекционированием и каталогизацией ссылок, присылаемых и публикуемых на форуме нашими читателями. Если вы являетесь правообладателем какого-либо представленного материала и не желаете, чтобы ссылка на него находилась в нашем каталоге, свяжитесь с нами, и мы незамедлительно удалим ее. Файлы для обмена на трекере предоставлены пользователями сайта, и администрация не несет ответственности за их содержание. Просьба не заливать файлы, защищенные авторскими правами, а также файлы нелегального содержания!