Важное объявление!
У Нас Все раздачи мультитрекерные, при нуле пиров в релизах, можете смело вставать на закачку!
 
Автор Сообщение

HUNTER

Стаж:
4 года 9 месяцев
Сообщений:
65070

Репутация: 101

[+] [-]
Вне форума [Профиль] [ЛС]

Восставший из ада 5: Преисподняя
Hellraiser: Inferno
--Страна: США
Жанр: ужасы, триллер, криминал, детектив
Год выпуска: 2000
Продолжительность: 01:40:10--Перевод: Профессиональный (многоголосый закадровый)
Перевод 2: Авторский (одноголосый закадровый) А.Гаврилов
Cубтитры: русские, английские
Оригинальная аудиодорожка: английский--Режиссер: Скотт Дерриксон / Scott Derrickson--В ролях: Крэйг Шеффер, Николас Туртурро, Джеймс Римар, Даг Брэдли, Николас Сэдлер, Ноэль Эванс, Линдсэй Тейлор, Мэтт Джордж, Майкл Шамус Уайлз, Саша Баррези--Описание: Созданная в 18-м веке магическая головоломка, способная открыть дорогу в ад, попадает в руки порочного полицейского из Лос-Анджелеса. И с этого момента все вокруг становится кошмаром. Может это возмездие за его неправедную жизнь? Но тогда очень страшное, потому что беспредел, творимый Джозефом, оказывается лишь бледной тенью настоящего адского бесчинства, через которое ему предстоит пройти…-- --Доп. информация: чаптеры сохранены--Тип релиза: BDRip 720p
Контейнер: MKV
Сэмпл
Видео: MPEG4 Video (H264) | 1280x720 16:9 | 23.976 fps | 5000 Kbps
Аудио: Dolby AC3 | 48000Hz | 6ch | 384 Kbps [Многоголоска]
Аудио 2: Dolby AC3 | 48000Hz | 6ch | 384 Kbps [Андрей Гаврилов]
Аудио 3: Dolby AC3 | 48000Hz | 6ch | 448 Kbps [English]--

MediaInfo

General
Unique ID : 191561503008971129302651917401599134349 (0x901D674AB4DB64908F8F1C678ACE4A8D)
Complete name : D:\TORRENTS\Hellraiser.5.Inferno.2000.BDRip.720p.mkv
Format : Matroska
Format version : Version 4 / Version 2
File size : 4.35 GiB
Duration : 1h 40mn
Overall bit rate : 6 206 Kbps
Encoded date : UTC 2014-11-09 15:02:51
Writing application : mkvmerge v7.2.0 ('On Every Street') 32bit built on Sep 13 2014 15:42:11
Writing library : libebml v1.3.0 + libmatroska v1.4.1
DURATION : 01:38:39.683000000
NUMBER_OF_FRAMES : 860
NUMBER_OF_BYTES : 31250
_STATISTICS_WRITING_APP : mkvmerge v7.2.0 ('On Every Street') 32bit built on Sep 13 2014 15:42:11
_STATISTICS_WRITING_DATE_UTC : 2014-11-09 15:02:51
_STATISTICS_TAGS : BPS DURATION NUMBER_OF_FRAMES NUMBER_OF_BYTES
Video
ID : 1
Format : AVC
Format/Info : Advanced Video Codec
Format profile : High@L4.1
Format settings, CABAC : Yes
Format settings, ReFrames : 9 frames
Codec ID : V_MPEG4/ISO/AVC
Duration : 1h 40mn
Bit rate : 5 000 Kbps
Width : 1 280 pixels
Height : 720 pixels
Display aspect ratio : 16:9
Frame rate mode : Constant
Frame rate : 23.976 fps
Color space : YUV
Chroma subsampling : 4:2:0
Bit depth : 8 bits
Scan type : Progressive
Bits/(Pixel*Frame) : 0.226
Stream size : 3.41 GiB (78%)
Title : Hellraiser.5.Inferno.2000.BDRip.720.MediaClub
Writing library : x264 core 142 r2409+42 04be48a tMod [8-bit@4:2:0 X86]
Encoding settings : cabac=1 / ref=9 / deblock=1:-3:-3 / analyse=0x3:0x133 / me=umh / subme=11 / psy=1 / fade_compensate=0.00 / psy_rd=1.00:0.15 / mixed_ref=1 / me_range=32 / chroma_me=1 / trellis=2 / 8x8dct=1 / cqm=0 / deadzone=21,11 / fast_pskip=0 / chroma_qp_offset=-3 / threads=3 / lookahead_threads=1 / sliced_threads=0 / nr=0 / decimate=0 / interlaced=0 / bluray_compat=0 / constrained_intra=0 / fgo=0 / bframes=8 / b_pyramid=2 / b_adapt=2 / b_bias=0 / direct=3 / weightb=1 / open_gop=0 / weightp=2 / keyint=240 / keyint_min=23 / scenecut=40 / intra_refresh=0 / rc=2pass / mbtree=0 / bitrate=5000 / ratetol=1.0 / qcomp=0.60 / qpmin=0:0:0 / qpmax=69:69:69 / qpstep=4 / cplxblur=20.0 / qblur=0.5 / ip_ratio=1.40 / pb_ratio=1.30 / aq=1:1.00 / aq-sensitivity=10.00 / aq-factor=1.00:1.00:1.00 / aq2=0 / aq3=0
Language : English
Default : Yes
Forced : No
DURATION : 01:40:09.921000000
NUMBER_OF_FRAMES : 144094
NUMBER_OF_BYTES : 3753450785
_STATISTICS_WRITING_APP : mkvmerge v7.2.0 ('On Every Street') 32bit built on Sep 13 2014 15:42:11
_STATISTICS_WRITING_DATE_UTC : 2014-11-09 15:02:51
_STATISTICS_TAGS : BPS DURATION NUMBER_OF_FRAMES NUMBER_OF_BYTES
Audio #1
ID : 2
Format : AC-3
Format/Info : Audio Coding 3
Mode extension : CM (complete main)
Format settings, Endianness : Big
Codec ID : A_AC3
Duration : 1h 40mn
Bit rate mode : Constant
Bit rate : 384 Kbps
Channel(s) : 6 channels
Channel positions : Front: L C R, Side: L R, LFE
Sampling rate : 48.0 KHz
Bit depth : 16 bits
Compression mode : Lossy
Stream size : 276 MiB (6%)
Title : TRACK_01_MVO_RUS
Language : Russian
Default : Yes
Forced : Yes
Audio #2
ID : 3
Format : AC-3
Format/Info : Audio Coding 3
Mode extension : CM (complete main)
Format settings, Endianness : Big
Codec ID : A_AC3
Duration : 1h 40mn
Bit rate mode : Constant
Bit rate : 384 Kbps
Channel(s) : 6 channels
Channel positions : Front: L C R, Side: L R, LFE
Sampling rate : 48.0 KHz
Bit depth : 16 bits
Compression mode : Lossy
Stream size : 276 MiB (6%)
Title : TRACK_02_AVO_RUS_GAVRILOV
Language : Russian
Default : No
Forced : No
Audio #3
ID : 4
Format : AC-3
Format/Info : Audio Coding 3
Mode extension : CM (complete main)
Format settings, Endianness : Big
Codec ID : A_AC3
Duration : 1h 40mn
Bit rate mode : Constant
Bit rate : 448 Kbps
Channel(s) : 6 channels
Channel positions : Front: L C R, Side: L R, LFE
Sampling rate : 48.0 KHz
Bit depth : 16 bits
Compression mode : Lossy
Stream size : 321 MiB (7%)
Title : TRACK_03_ORIGINAL_ENG
Language : English
Default : No
Forced : No
Text #1
ID : 5
Format : UTF-8
Codec ID : S_TEXT/UTF8
Codec ID/Info : UTF-8 Plain Text
Title : TEXT_01_SUB_RUS
Language : Russian
Default : No
Forced : No
Text #2
ID : 6
Format : UTF-8
Codec ID : S_TEXT/UTF8
Codec ID/Info : UTF-8 Plain Text
Title : TEXT_02_SUB_ENG
Language : English
Default : No
Forced : No
Menu
00:00:00.000 : :Chapter 01
00:11:05.665 : :Chapter 02
00:18:31.318 : :Chapter 03
00:30:24.072 : :Chapter 04
00:42:49.149 : :Chapter 05
00:53:39.466 : :Chapter 06
01:03:00.568 : :Chapter 07
01:12:26.633 : :Chapter 08
01:25:16.903 : :Chapter 09
01:36:32.286 : :Chapter 10

Скриншоты



-
-

_________________
Показать сообщения:    

Текущее время: Сегодня 22:29

Часовой пояс: GMT



Вы не можете начинать темы
Вы не можете отвечать на сообщения
Вы не можете редактировать свои сообщения
Вы не можете удалять свои сообщения
Вы не можете голосовать в опросах
Вы не можете прикреплять файлы к сообщениям
Вы не можете скачивать файлы