Ивановский Торрент трекер
Яндекс.Погода
 

[Цитировать]
Vanya_o3

Воспроизведение / Playback
«Picture. Evil.»
Страна: США
Жанр: ужасы, триллер
Год выпуска: 2012
Продолжительность: 01:38:34
Перевод: Профессиональный (многоголосый закадровый) [лицензия]
Cубтитры: нет
Режиссер: Майкл А. Никлз / Michael A. Nickles
В ролях: Алессандра Торесон, Тоби Хемингуэй, Кристиан Слэйтер, Джонни Пакар, Эмбир Чилдерс, Дженнифер Миссони, Джонатан Кельтц, Люк Боньчик, Мэтт Браатен, Дориен Дейвис
Описание: Герои фильма, школьники из старшего класса, вызывают к жизни демона, который нападает на своих жертв через видеозапись, во время просмотра…
|
Автор рипа: S.T.A.L.K.E.R.2 (aka Stalker oK)
Сэмпл: http://multi-up.com/849081
Качество видео: HDRip-AVC [BDRip 720p]
Формат видео: MKV
Видео: 1661 Кбит/сек, 896*504 (16:9), в 23,976 кадр/сек, AVC
Аудио: Russian, 448 Кбит/сек, 48,0 КГц, 16 бит, 6 канала(ов), AC-3

MediaInfo

Общее
Уникальный идентификатор : 173474944439040834461531234652563385169 (0x82820F1B40E83D43B636BEF0CABF2B51)
Формат : Matroska
Размер файла : 1,45 Гбайт
Продолжительность : 1 ч. 38 м.
Общий поток : 2109 Кбит/сек
Название фильма : Playback 2012 (Rip by S.T.A.L.K.E.R.2)
Дата кодирования : UTC 2013-03-31 21:31:31
Программа кодирования : mkvmerge v6.1.0 ('Old Devil') built on Mar 2 2013 14:32:37
Библиотека кодирования : libebml v1.3.0 + libmatroska v1.4.0
Видео
Идентификатор : 1
Формат : AVC
Формат/Информация : Advanced Video Codec
Профиль формата : High@L4.1
Параметр CABAC формата : Да
Параметр ReFrames формата : 8 кадры
Идентификатор кодека : V_MPEG4/ISO/AVC
Продолжительность : 1 ч. 38 м.
Битрейт : 1661 Кбит/сек
Ширина : 896 пикс.
Высота : 504 пикс.
Соотношение сторон : 16:9
Частота кадров : 23,976 кадр/сек
Цветовое пространство : YUV
Подвыборка цветности : 4:2:0
Битовая глубина : 8 бит
Тип развёртки : Прогрессивная
Бит/(Пиксели*Кадры) : 0.153
Размер потока : 1,11 Гбайт (77%)
Библиотека кодирования : x264 core 129 r2230 1cffe9f
Настройки программы : cabac=1 / ref=8 / deblock=1:-2:-1 / analyse=0x3:0x113 / me=umh / subme=10 / psy=1 / psy_rd=1.00:0.05 / mixed_ref=1 / me_range=32 / chroma_me=1 / trellis=2 / 8x8dct=1 / cqm=0 / deadzone=21,11 / fast_pskip=0 / chroma_qp_offset=-3 / threads=6 / lookahead_threads=1 / sliced_threads=0 / nr=0 / decimate=0 / interlaced=0 / bluray_compat=0 / constrained_intra=0 / bframes=9 / b_pyramid=2 / b_adapt=2 / b_bias=0 / direct=3 / weightb=1 / open_gop=0 / weightp=2 / keyint=240 / keyint_min=23 / scenecut=40 / intra_refresh=0 / rc_lookahead=40 / rc=2pass / mbtree=1 / bitrate=1661 / ratetol=1.0 / qcomp=0.60 / qpmin=10 / qpmax=51 / qpstep=4 / cplxblur=20.0 / qblur=0.5 / vbv_maxrate=50000 / vbv_bufsize=50000 / nal_hrd=none / ip_ratio=1.40 / aq=1:1.00
Язык : English
Аудио
Идентификатор : 2
Формат : AC-3
Формат/Информация : Audio Coding 3
Расширение режима : CM (complete main)
Идентификатор кодека : A_AC3
Продолжительность : 1 ч. 38 м.
Вид битрейта : Постоянный
Битрейт : 448 Кбит/сек
Канал(ы) : 6 канала(ов)
Расположение каналов : Front: L C R, Side: L R, LFE
Частота : 48,0 КГц
Битовая глубина : 16 бит
Метод сжатия : С потерями
Размер потока : 316 Мбайт (21%)
Заголовок : DD 5.1 @ 448 kbps - MVO, R5
Язык : Russian

Скриншоты



Показать сообщения:    

Текущее время: 16-Дек 03:29

Часовой пояс: UTC ± 0


Вы не можете начинать темы
Вы не можете отвечать на сообщения
Вы не можете редактировать свои сообщения
Вы не можете удалять свои сообщения
Вы не можете голосовать в опросах
Вы не можете прикреплять файлы к сообщениям
Вы не можете скачивать файлы

!ВНИМАНИЕ!
Сайт не предоставляет электронные версии произведений, а занимается лишь коллекционированием и каталогизацией ссылок, присылаемых и публикуемых на форуме нашими читателями. Если вы являетесь правообладателем какого-либо представленного материала и не желаете, чтобы ссылка на него находилась в нашем каталоге, свяжитесь с нами, и мы незамедлительно удалим ее. Файлы для обмена на трекере предоставлены пользователями сайта, и администрация не несет ответственности за их содержание. Просьба не заливать файлы, защищенные авторскими правами, а также файлы нелегального содержания!