Ивановский Торрент трекер
Яндекс.Погода
 

[Цитировать]
HUNTER

Воскрешение
A Resurrection
«Он придёт за тобой» Год выпуска: 2013
Страна: США
Жанр: Триллер
Продолжительность: 01:30:20
Перевод: Дублированное |Лицензия|
Субтитры: Нет

Режиссёр:
Мэтт Орландо

В ролях:
Миша Бартон, Девон Сава, Майкл Кларк Дункан,
Джонатан Майкл Траутмэнн, Николас Джендл,
Стюарт Стоун, Аланна Романски, Морган Волк,
Энни Китрал, Патрик Де Ледебур

История о подростке, который похоронил своего родного брата, но не хочет признать и поверить в это. С ним долгое время работает психолог,
который пытается ему это объяснить, но подросток на каждом сеансе отрицает факт смерти. Вскоре полицейские обнаруживают вскрытую могилу,
из которой исчезло тело брата. После этого, по мистическому совпадению, подросток начинает видеть убийства, которые должны совершиться в
ближайшее время и рисует их в своих рисунках. Психологи и полиция начинают работать с подростком, но открытие поражает их сознание.

Качество: HDRip-AVC
Формат: MKV
Видео кодек: AVC
Аудио кодек: AC3
Видео: 1072x448 (2,40:1), 2700 Кбит/сек, 29,970 кадров/сек, 0.188 (Бит/(Пиксели*Кадры)
Аудио: AC-3, 384 Кбит/сек, 6 каналов, 48,0 КГц (Русский)

Автор рипа: _Night Speed_33rus

Рейтинг:

IMDb рейтинг: 3.80 (862 голоса)
КиноПоиск рейтинг: 4.120 (979 голосов)

MediaInfo:

Код: copyText_writeLink('this.parentNode.parentNode.nextSibling.nextSibling'); Общее
Уникальный идентификатор : 241522677464430577318644150174532093846 (0xB5B3935F9DAB0496B8964BC8A1D5C796)
Полное имя : D:\Программы\Мои загрузки\Мои рипы\Voskreshenie.2013.HDRip-AVC by _Night Speed_33rus.mkv
Формат : Matroska
Версия формата : Version 2
Размер файла : 1,94 Гбайт
Продолжительность : 1 ч. 30 м.
Общий поток : 3074 Кбит/сек
Дата кодирования : UTC 2013-11-24 13:51:05
Программа кодирования : mkvmerge v5.0.1 ('Es ist Sommer') built on Nov 6 2011 16:23:40
Библиотека кодирования : libebml v1.2.2 + libmatroska v1.3.0
Видео
Идентификатор : 1
Формат : AVC
Формат/Информация : Advanced Video Codec
Профиль формата : High@L3.1
Параметр CABAC формата : Да
Параметр ReFrames формата : 4 кадра
Идентификатор кодека : V_MPEG4/ISO/AVC
Продолжительность : 1 ч. 30 м.
Битрейт : 2700 Кбит/сек
Ширина : 1072 пикселя
Высота : 448 пикселей
Соотношение сторон : 2,40:1
Режим частоты кадров : Постоянный
Частота кадров : 29,970 кадров/сек
Цветовое пространство : YUV
Субдискретизация насыщенности : 4:2:0
Битовая глубина : 8 бит
Тип развёртки : Прогрессивная
Бит/(Пиксели*Кадры) : 0.188
Размер потока : 1,66 Гбайт (86%)
Библиотека кодирования : x264 core 119 r2106 07efeb4
Настройки программы : cabac=1 / ref=3 / deblock=1:0:0 / analyse=0x3:0x113 / me=hex / subme=7 / psy=1 / psy_rd=1.00:0.00 / mixed_ref=1 / me_range=16 / chroma_me=1 / trellis=1 / 8x8dct=1 / cqm=0 / deadzone=21,11 / fast_pskip=1 / chroma_qp_offset=-2 / threads=3 / sliced_threads=0 / nr=0 / decimate=1 / interlaced=0 / bluray_compat=0 / constrained_intra=0 / bframes=3 / b_pyramid=2 / b_adapt=1 / b_bias=0 / direct=1 / weightb=1 / open_gop=0 / weightp=2 / keyint=250 / keyint_min=25 / scenecut=40 / intra_refresh=0 / rc_lookahead=40 / rc=abr / mbtree=1 / bitrate=2700 / ratetol=1.0 / qcomp=0.60 / qpmin=0 / qpmax=69 / qpstep=4 / ip_ratio=1.40 / aq=1:1.00
Default : Да
Forced : Нет
Аудио
Идентификатор : 2
Формат : AC-3
Формат/Информация : Audio Coding 3
Расширение режима : CM (complete main)
Параметр Endianness формата : Big
Идентификатор кодека : A_AC3
Продолжительность : 1 ч. 30 м.
Вид битрейта : Постоянный
Битрейт : 384 Кбит/сек
Каналы : 6 каналов
Расположение каналов : Front: L C R, Side: L R, LFE
Частота : 48,0 КГц
Битовая глубина : 16 бит
Метод сжатия : С потерями
Размер потока : 248 Мбайт (12%)
Default : Да
Forced : Нет

Скриншоты

- -- -- -- -
© Оформление by _Night Speed_33rus


Показать сообщения:    

Текущее время: 16-Дек 22:25

Часовой пояс: UTC ± 0


Вы не можете начинать темы
Вы не можете отвечать на сообщения
Вы не можете редактировать свои сообщения
Вы не можете удалять свои сообщения
Вы не можете голосовать в опросах
Вы не можете прикреплять файлы к сообщениям
Вы не можете скачивать файлы

!ВНИМАНИЕ!
Сайт не предоставляет электронные версии произведений, а занимается лишь коллекционированием и каталогизацией ссылок, присылаемых и публикуемых на форуме нашими читателями. Если вы являетесь правообладателем какого-либо представленного материала и не желаете, чтобы ссылка на него находилась в нашем каталоге, свяжитесь с нами, и мы незамедлительно удалим ее. Файлы для обмена на трекере предоставлены пользователями сайта, и администрация не несет ответственности за их содержание. Просьба не заливать файлы, защищенные авторскими правами, а также файлы нелегального содержания!