Важное объявление!
У Нас Все раздачи мультитрекерные, при нуле пиров в релизах, можете смело вставать на закачку!
 
Автор Сообщение

HUNTER

Стаж:
4 года 7 месяцев
Сообщений:
61449

Репутация: 101

[+] [-]
Вне форума [Профиль] [ЛС]

Воскресенье без Бога / Kami-sama no Inai Nichiyoubi / Kaminai / Sunday Without God / 神さまのいない日曜日
-Страна: Япония
Год выпуска: 2013 г.
Жанр: драма, фэнтези.
Тип: TV
Продолжительность: (13 эп.), 25 мин.-Перевод:
  • от LeDi-MaHo Team
    Перевод & лирика: MantisFL. Редакция & оформление: Holydarkness.
-Озвучка:
  • двухголосая(муж./жен.) от Соловей & becky (OpenDub) Семпл-
Режиссер: Кумадзава Юдзи.
Студия: -Описание: Бог создал мир за пять дней, на шестой он решил отдохнуть, на седьмой же день он исчез, оставив после себя людям лишь их - Хранителей могил. Только они могут упокоить душу человека и лишь они могут убить живого. В этом брошенном Господом мире, где люди не способны умереть, девочке, чье имя Ай, уготовлено судьбой стать одной из Хранителей и разделить свой путь с тем кого она примет за отца. Их путь только начинается...-Качество: BDRip
Энкод: FFF
Тип релиза: Без хардсаба
Формат видео: MKV
Видео: Н264, 10 bit, 1920x1080, 6060 kbps, 23.976 fps
Аудио RUS: AC3, 640 kbps, 48 kHz, Stereo (в составе контейнера)-Релиз от: OpenDub-

Подробные тех. данные

General
Unique ID : 225895872763216816488291396470988678157 (0xA9F1F66AC7667C93B3EB05AFEAB5240D)
Complete name : D:\OpenDub BDrip\[OpenDub]_Kami_sama_no_Inai_Nichiyoubi_[Соловей_&_becky]_[BD-1080p]\[OpenDub]_Kami_sama_no_Inai_Nichiyoubi_[01]_[RUS]_[1920x1080_H264_AC3]_[Соловей_&_becky].mkv
Format : Matroska
Format version : Version 2
File size : 1.11 GiB
Duration : 23mn 44s
Overall bit rate : 6 705 Kbps
Encoded date : UTC 2014-03-07 14:12:50
Writing application : mkvmerge v3.3.0 ('Language') built on Mar 24 2010 14:59:24
Writing library : libebml v0.8.0 + libmatroska v0.9.0
Attachment : Yes / Yes / Yes / Yes / Yes / Yes / Yes / Yes / Yes
Video
ID : 1
Format : AVC
Format/Info : Advanced Video Codec
Format profile : High 10@L5.1
Format settings, CABAC : Yes
Format settings, ReFrames : 16 frames
Codec ID : V_MPEG4/ISO/AVC
Duration : 23mn 44s
Bit rate : 5 931 Kbps
Width : 1 920 pixels
Height : 1 080 pixels
Display aspect ratio : 16:9
Frame rate mode : Constant
Frame rate : 23.976 fps
Color space : YUV
Chroma subsampling : 4:2:0
Bit depth : 10 bits
Scan type : Progressive
Bits/(Pixel*Frame) : 0.119
Stream size : 1 007 MiB (88%)
Title : [FFF]
Writing library : x264 core 138 r2359+704+48 3f879a0 tMod [10-bit@all X86_64]
Encoding settings : cabac=1 / ref=16 / deblock=1:0:0 / analyse=0x3:0x133 / me=umh / subme=11 / psy=1 / fade_compensate=0.00 / psy_rd=0.74:0.00 / mixed_ref=1 / me_range=32 / chroma_me=1 / trellis=2 / 8x8dct=1 / cqm=0 / deadzone=21,11 / fast_pskip=0 / chroma_qp_offset=-2 / threads=18 / lookahead_threads=4 / sliced_threads=0 / nr=0 / decimate=0 / interlaced=0 / bluray_compat=0 / constrained_intra=0 / fgo=0 / bframes=16 / b_pyramid=2 / b_adapt=2 / b_bias=0 / direct=3 / weightb=1 / open_gop=0 / weightp=2 / keyint=240 / keyint_min=24 / scenecut=40 / intra_refresh=0 / rc_lookahead=240 / rc=crf / mbtree=1 / crf=14.0000 / qcomp=0.80 / qpmin=0:0:0 / qpmax=81:81:81 / qpstep=4 / ip_ratio=1.40 / aq=3:0.80 / aq-sensitivity=10.00 / aq-factor=1.00:1.00:1.00 / aq2=0 / aq3=0
Language : Japanese
Default : Yes
Forced : Yes
Color primaries : BT.709
Transfer characteristics : BT.709
Matrix coefficients : BT.709
Audio
ID : 2
Format : AC-3
Format/Info : Audio Coding 3
Mode extension : CM (complete main)
Format settings, Endianness : Big
Codec ID : A_AC3
Duration : 23mn 44s
Bit rate mode : Constant
Bit rate : 640 Kbps
Channel(s) : 2 channels
Channel positions : Front: L R
Sampling rate : 48.0 KHz
Bit depth : 16 bits
Compression mode : Lossy
Stream size : 109 MiB (10%)
Title : [OpenDub]_becky_&_Соловей
Language : Russian
Default : Yes
Forced : Yes
Menu
00:00:00.000 : en:Prologue
00:02:41.036 : en:Opening
00:04:11.001 : en:Episode
00:21:47.223 : en:Ending
00:23:30.034 : en:Preview

Названия серий

01. Долина Смерти. Ч.1
02. Долина Смерти. Ч.2
03. Долина Смерти. Ч.3
04. Ортус. Ч.1
05. Ортус. Ч.2
06. Ортус. Ч.3
07. Академия «Гола». Ч.1
08. Академия «Гола». Ч.2
09. Родина хранителей могил

10. Класс 3-4. Ч.1
11. Класс 3-4. Ч.2
12. Класс 3-4. Ч.3
13. Воспоминания

Отличия

В разделе Аниме (QC подраздел)
http://rutracker.org/forum/viewtopic.php?t=4498754 - Альтернативная озвучка, BDRip 1080p.
http://rutracker.org/forum/viewtopic.php?t=4505365 - Альтернативная озвучка, BDRip 1080p.
http://rutracker.org/forum/viewtopic.php?t=4485829 - Альтернативная озвучка, BDRip 1080p.
http://rutracker.org/forum/viewtopic.php?t=4480987 - Альтернативная озвучка, BDRip 1080p.
В разделе Аниме (HD Video)
http://rutracker.org/forum/viewtopic.php?t=4514829 - BDRip 1080p.
http://rutracker.org/forum/viewtopic.php?t=4577778 - BDRip 1080p.

Скриншоты


_________________
Показать сообщения:    

Текущее время: Сегодня 14:31

Часовой пояс: GMT



Вы не можете начинать темы
Вы не можете отвечать на сообщения
Вы не можете редактировать свои сообщения
Вы не можете удалять свои сообщения
Вы не можете голосовать в опросах
Вы не можете прикреплять файлы к сообщениям
Вы не можете скачивать файлы
Наши партнеры: интернет магазин Ивановского трикотажа textilla.ru