Ивановский Торрент трекер
Яндекс.Погода
 

[Цитировать]
HUNTER

Восковая фигура / Кукла / Vaxdockan / The Doll
Страна: Швеция
Студия: Flora film
Жанр: драма
Год выпуска: 1962
Продолжительность: 01:30:29
Перевод: Одноголосый закадровый Urasiko
Cубтитры: нет
Оригинальная аудиодорожка: шведский
Режиссер: Арне Маттсон / Arne Mattsson
В ролях: Пер Оскарссон, Джио Петри, Тор Иседаль, Бенгт Эклунд, Мари-Луиза Нордгрен, Дагмар Олссон, Мими Нельсон, Рик Аксберг
Описание: Одинокий ночной сторож Лундгрен влюбляется в манекен (восковую куклу) и приносит её домой, чтобы жить с ней...
Доп. информация: Русская звуковая дорожка взята с этой раздачи http://rutracker.org/forum/viewtopic.php?t=4351650 автору большое спасибо.
При пересборе двд были использованы программы:
BeSweet в связке с BeLight – распаковка звука в формат WAV
Sony Vegas – кодирование в AC3
PgcDemux - разделение компонентов диска на файлы
Muxman - мультиплексирование и авторинг DVD
VobBlanker - реавторинг DVD

Скрин завершения проекта

Бонусы: Галерея, трейлеры.
Сэмпл: http://sendfile.su/1091183
Тип релиза: DVD9 (Custom)
Контейнер: DVD-Video
Видео: PAL 4:3 (720x576) VBR
Аудио: Russian (Dolby AC3, 192 Кбит/сек, 2 ch)
Аудио 2: Svenska (Dolby AC3, 320 Кбит/сек, 2 ch)

DVDInfo

Size: 6.62 Gb ( 6 940 090 KBytes ) - DVD-9
Enabled regions: 1, 2, 3, 4, 5, 6
VTS_01 :
Play Length: 00:00:29
Video: PAL 4:3 (720x576) VBR
Audio:
Svenska (Dolby AC3, 2 ch)
VTS_02 :
Play Length: 01:30:29
Video: PAL 4:3 (720x576) VBR
Audio:
Russian (Dolby AC3, 2 ch)
Svenska (Dolby AC3, 2 ch)
VTS_03 :
Play Length: 00:24:18
Video: PAL 4:3 (720x576) VBR
Audio:
Svenska (Dolby AC3, 2 ch)
VTS_04 :
Play Length: 00:01:48
Video: PAL 4:3 (720x576) VBR
VTS_05 :
Play Length: 00:02:33
Video: PAL 4:3 (720x576) VBR
Audio:
Svenska (Dolby AC3, 2 ch)
VTS_06 :
Play Length: 00:02:21
Video: PAL 4:3 (720x576) VBR
Audio:
Svenska (Dolby AC3, 2 ch)
VTS_07 :
Play Length: 00:02:01
Video: PAL 4:3 (720x576) VBR
Audio:
Svenska (Dolby AC3, 2 ch)
VTS_08 :
Play Length: 00:01:09
Video: PAL 4:3 (720x576) VBR
Audio:
Svenska (Dolby AC3, 2 ch)
VTS_09 :
Play Length: 00:02:31
Video: PAL 4:3 (720x576) VBR
Audio:
Svenska (Dolby AC3, 2 ch)
VTS_10 :
Play Length: 00:02:25
Video: PAL 4:3 (720x576) VBR
Audio:
Svenska (Dolby AC3, 2 ch)
VTS_11 :
Play Length: 00:02:44
Video: PAL 4:3 (720x576) VBR
Audio:
Svenska (Dolby AC3, 2 ch)
VTS_12 :
Play Length: 00:02:30
Video: PAL 4:3 (720x576) VBR
Audio:
Svenska (Dolby AC3, 2 ch)
VTS_13 :
Play Length: 00:03:30
Video: PAL 4:3 (720x576) VBR
Audio:
Svenska (Dolby AC3, 2 ch)
VTS_14 :
Play Length: 00:03:15
Video: PAL 4:3 (720x576) VBR
Audio:
Svenska (Dolby AC3, 2 ch)
VTS_15 :
Play Length: 00:02:52
Video: PAL 4:3 (720x576) VBR
Audio:
Svenska (Dolby AC3, 2 ch)
Menu Video:
PAL 4:3 (720x576) VBR
Menu English Language Unit :
Root Menu

MediaInfo

Общее
Полное имя : M:\Vaxdockan_1962\VIDEO_TS\VTS_02_1.VOB
Формат : MPEG-PS
Размер файла : 1024 Мбайт
Продолжительность : 22 м.
Режим общего битрейта : Переменный
Общий поток : 6415 Кбит/сек
Видео
Идентификатор : 224 (0xE0)
Формат : MPEG Video
Версия формата : Version 2
Профиль формата : Main@Main
Параметр BVOP формата : Да
Параметр матрицы формата : Выборочная
Параметр GOP формата : M=2, N=12
Продолжительность : 22 м.
Вид битрейта : Переменный
Битрейт : 5776 Кбит/сек
Максимальный битрейт : 7993 Кбит/сек
Ширина : 720 пикселей
Высота : 576 пикселей
Соотношение сторон : 4:3
Частота кадров : 25,000 кадров/сек
Стандарт вещания : PAL
Цветовое пространство : YUV
Субдискретизация насыщенности : 4:2:0
Битовая глубина : 8 бит
Тип развёртки : Чересстрочная
Порядок развёртки : Нижнее поле первое
Метод сжатия : С потерями
Бит/(Пиксели*Кадры) : 0.557
Размер потока : 922 Мбайт (90%)
Основные цвета : BT.601 PAL
Характеристики трансфера : BT.470 System B, BT.470 System G
Коэффициенты матрицы : BT.601
Аудио #1
Идентификатор : 189 (0xBD)-128 (0x80)
Формат : AC-3
Формат/Информация : Audio Coding 3
Расширение режима : CM (complete main)
Параметр Endianness формата : Big
Режим смешивания : DVD-Video
Продолжительность : 22 м.
Вид битрейта : Постоянный
Битрейт : 192 Кбит/сек
Каналы : 2 канала
Расположение каналов : Front: L R
Частота : 48,0 КГц
Битовая глубина : 16 бит
Метод сжатия : С потерями
Размер потока : 30,6 Мбайт (3%)
Аудио #2
Идентификатор : 189 (0xBD)-129 (0x81)
Формат : AC-3
Формат/Информация : Audio Coding 3
Расширение режима : CM (complete main)
Параметр Endianness формата : Big
Режим смешивания : DVD-Video
Продолжительность : 22 м.
Вид битрейта : Постоянный
Битрейт : 320 Кбит/сек
Каналы : 2 канала
Расположение каналов : Front: L R
Частота : 48,0 КГц
Битовая глубина : 16 бит
Метод сжатия : С потерями
Размер потока : 51,1 Мбайт (5%)
Меню

Скриншоты меню

Показать сообщения:    

Текущее время: 22-Сен 15:51

Часовой пояс: UTC - 1


Вы не можете начинать темы
Вы не можете отвечать на сообщения
Вы не можете редактировать свои сообщения
Вы не можете удалять свои сообщения
Вы не можете голосовать в опросах
Вы не можете прикреплять файлы к сообщениям
Вы не можете скачивать файлы

!ВНИМАНИЕ!
Сайт не предоставляет электронные версии произведений, а занимается лишь коллекционированием и каталогизацией ссылок, присылаемых и публикуемых на форуме нашими читателями. Если вы являетесь правообладателем какого-либо представленного материала и не желаете, чтобы ссылка на него находилась в нашем каталоге, свяжитесь с нами, и мы незамедлительно удалим ее. Файлы для обмена на трекере предоставлены пользователями сайта, и администрация не несет ответственности за их содержание. Просьба не заливать файлы, защищенные авторскими правами, а также файлы нелегального содержания!