Важное объявление!
У Нас Все раздачи мультитрекерные, при нуле пиров в релизах, можете смело вставать на закачку!
Статистика раздачи
Размер:     |    Зарегистрирован:     |    Скачан:     |   
Нет
 
     
 
 
Автор Сообщение

mihis

[Профиль] [ЛС]

Вопрос чести / In Pursuit of Honor«As soldiers they were taught to fight for honor. As men they were willing to die for it.»
Год выпуска: 1995
Страна: США, Home Box Office (HBO)
Жанр: Приключения, драма, вестерн
Продолжительность: 01:49:51
Перевод: Авторский (одноголосый,закадровый) А.Гаврилов + Оригинал
Режиссер: Кен Олин
В ролях: Дон Джонсон, Крэйг Шеффер, Габриэлла Анвар, Роберт Гантон, Джеймс Б. Сиккин, Джон Деннис Джонстон, Роберт Коулби, Род Стайгер
Описание: Фильм основан на реальных событиях. После Второй мировой войны кавалерия отжила свой век. Генерал Макартур приказал заменить кавалерию бронетанковыми войсками, а лошадей уничтожить. Уничтожали лошадей зверски - просто расстреливали из пулеметов. Несколько кавалеристов не смогли этого вынести, взбунтовались и угнали 500 своих боевых "товарищей", чтобы отдать их индейцам. По их следу были посланы войска с приказом задержать или уничтожить. Дочь старого полковника, бывшего командира их кавалерийской части, подняла шум в прессе. Вопрос о судьбе лошадей стал вопросом чести.

Качество: DVDRip
Формат: AVI
Видео кодек: XviD
Аудио кодек: AC3
Видео: 720x416 (1.73:1), 23.976 fps, XviD build 47 ~2028 kbps avg, 0.28 bit/pixel
Аудио: 48 kHz, AC3 Dolby Digital, 2/0 (L,R) ch, ~192.00 kbps avg Rus, Eng

MediaInfo

Общее
Полное имя : D:\Video\In Pursuit of Honor (Gavrilov, eng) (DVDrip)_int_.avi
Формат : AVI
Формат/Информация : Audio Video Interleave
Размер файла : 1,86 Гбайт
Продолжительность : 1 ч. 49 м.
Общий поток : 2428 Кбит/сек
Название фильма : In Pursuit of Honor (1995)
Режиссёр : _int_
Программа кодирования : VirtualDubMod 1.5.10.1 (build 2366/release)
Видео
Идентификатор : 0
Формат : MPEG-4 Visual
Профиль формата : Advanced Simple@L5
Параметр BVOP формата : 1
Параметр QPel формата : Нет
Параметр GMC формата : Без точки перехода
Параметр матрицы формата : Выборочная
Идентификатор кодека : XVID
Идентификатор кодека/Подсказка : XviD
Продолжительность : 1 ч. 49 м.
Битрейт : 2029 Кбит/сек
Ширина : 720 пикселей
Высота : 416 пикселей
Соотношение сторон : 1,731
Частота кадров : 23,976 кадра/сек
Цветовое пространство : YUV
Субдискретизация насыщенности : 4:2:0
Битовая глубина : 8 бит
Тип развёртки : Прогрессивная
Метод сжатия : С потерями
Бит/(Пиксели*Кадры) : 0.283
Размер потока : 1,56 Гбайт (84%)
Библиотека кодирования : XviD 1.2.0.dev47 (UTC 2006-11-01)
Аудио #1
Идентификатор : 1
Формат : AC-3
Формат/Информация : Audio Coding 3
Расширение режима : CM (complete main)
Параметр Endianness формата : Big
Идентификатор кодека : 2000
Продолжительность : 1 ч. 49 м.
Вид битрейта : Постоянный
Битрейт : 192 Кбит/сек
Каналы : 2 канала
Расположение каналов : Front: L R
Частота : 48,0 КГц
Битовая глубина : 16 бит
Метод сжатия : С потерями
Размер потока : 151 Мбайт (8%)
Выравнивание : Разделение по промежуткам
Продолжительность промежутка : 42 мс. (1,00 видеокадр)
Время предзагрузки промежутка : 500 мс.
Аудио #2
Идентификатор : 2
Формат : AC-3
Формат/Информация : Audio Coding 3
Профиль формата : Dolby Digital
Расширение режима : CM (complete main)
Параметр Endianness формата : Big
Идентификатор кодека : 2000
Продолжительность : 1 ч. 49 м.
Вид битрейта : Постоянный
Битрейт : 192 Кбит/сек
Каналы : 2 канала
Расположение каналов : Front: L R
Частота : 48,0 КГц
Битовая глубина : 16 бит
Метод сжатия : С потерями
Размер потока : 151 Мбайт (8%)
Выравнивание : Разделение по промежуткам
Продолжительность промежутка : 42 мс. (1,00 видеокадр)
Время предзагрузки промежутка : 500 мс.
 
Показать сообщения:    

Текущее время: Сегодня 03:52

Часовой пояс: GMT



Вы не можете начинать темы
Вы не можете отвечать на сообщения
Вы не можете редактировать свои сообщения
Вы не можете удалять свои сообщения
Вы не можете голосовать в опросах
Вы не можете прикреплять файлы к сообщениям
Вы не можете скачивать файлы