Ивановский Торрент трекер
Яндекс.Погода
 

[Цитировать]
HUNTER

| Все релизы мультфильма || BDRip 720p, 4.36 GB |- P R E S E N T SВольт / Bolt- Страна: США
Жанр: мультфильм, фантастика, приключения, семейный
Продолжительность: 01:36:22
Год выпуска: 2008
Перевод 1: Профессиональный (полное дублирование)
Перевод 2: Авторский (одноголосый закадровый) Владимир Королев
Субтитры: есть-Режиссёр: Байрон Ховард, Крис Уильямс / Byron Howard, Chris Williams
Роли озвучивали: Джон Траволта, Майли Сайрус, Сьюзи Эссман, Марк Уолтон, Малкольм МакДауэлл, Джеймс Липтон, Ник Свардсон, Жан-Поль Мано, Дэн Фогельман, Кэри Уолгрен, Хлоя Грейс Морец...
Роли дублировали: Владимир Вдовиченков, Мария Иващенко, Анжела Белянская, Леонид Барац, Владимир Майсурадзе, Александр Стефанцов, Ростислав Хаит, Камиль Ларин, Александр Демидов и др.- | | -Описание: Пес по кличке «Вольт» всю жизнь снимается в телевизионном сериале, где его герой - суперпес - спасает человечество, используя свои необычайные способности. Сам Вольт свято верит в собственную неуязвимость, невероятную силу, и умение летать. Когда же судьба забрасывает его в полный опасностей Большой Город, он все еще думает, что это - лишь очередной эпизод телесериала...-Доп. информация: BDRip 720p сделан с Blu-Ray диска Bolt (2008) Blu-ray EUR 1080p AVC DD5.1-HDClub (Локализованный видеоряд).
Отдельное спасибо xfiles за подготовку русских и украинских субтитров.
-Сэмпл/Sample (52.1 MB, 1 минута)-Качество: BDRip 720p
Формат: MKV
Видео: 1280x720 (1.778:1), 23,976 fps, ~3915 kbps avg, 0.177 bit/pixel
Аудио #1: Русский, AC3 EX, 6 ch, 48 kHz, 640 kbps - Дубляж | BD EUR
Аудио #2: Русский, AC3, 6 ch, 48 kHz, 640 kbps - AVO | Владимир Королев
Аудио #3: Украинский, AC3 EX, 6 ch, 48 kHz, 640 kbps - Дубляж | BD 3D CEE
Аудио #4: English, AC3 EX, 6 ch, 48 kHz, 640 kbps - Original
Субтитры: Русские (полные, форсированные), Украинские (полные, форсированные), English (Full, SDH)
Навигация по главам: есть (16 именованных глав)

MediaInfo / x264Log

x264Log

raw [info]: 1280x720p 1:1 @ 24000/1001 fps (cfr)x264 [info]: using SAR=1/1x264 [info]: using cpu capabilities: MMX2 SSE2Fast SSSE3 SSE4.2 AVX XOP FMA4 FMA3 LZCNT BMI1x264 [info]: profile High, level 4.1x264 [info]: frame I:1108 Avg QP:11.18 size:176985 PSNR Mean Y:50.95 U:53.36 V:53.39 Avg:51.59 Global:51.01x264 [info]: frame P:37512 Avg QP:13.04 size: 38905 PSNR Mean Y:49.12 U:51.67 V:51.73 Avg:49.78 Global:49.15x264 [info]: frame B:100005 Avg QP:15.10 size: 11739 PSNR Mean Y:48.85 U:51.68 V:51.72 Avg:49.56 Global:48.75x264 [info]: consecutive B-frames: 4.1% 3.6% 28.4% 20.9% 10.5% 28.1% 1.6% 0.7% 0.7% 0.3% 0.2% 0.5% 0.5%x264 [info]: mb I I16..4: 4.4% 69.5% 26.1%x264 [info]: mb P I16..4: 1.2% 12.4% 2.4% P16..4: 22.2% 24.9% 13.3% 3.5% 0.4% skip:19.6%x264 [info]: mb B I16..4: 0.4% 1.7% 0.2% B16..8: 24.2% 18.7% 3.9% direct: 4.0% skip:46.9% L0:42.6% L1:44.9% BI:12.4%x264 [info]: 8x8 transform intra:75.9% inter:42.8%x264 [info]: coded y,uvDC,uvAC intra: 84.3% 87.2% 73.4% inter: 17.1% 14.1% 5.6%x264 [info]: i16 v,h,dc,p: 41% 12% 7% 40%x264 [info]: i8 v,h,dc,ddl,ddr,vr,hd,vl,hu: 11% 15% 12% 8% 9% 9% 11% 10% 14%x264 [info]: i4 v,h,dc,ddl,ddr,vr,hd,vl,hu: 12% 13% 11% 8% 14% 11% 12% 8% 11%x264 [info]: i8c dc,h,v,p: 42% 27% 16% 15%x264 [info]: Weighted P-Frames: Y:2.9% UV:2.2%x264 [info]: ref P L0: 56.3% 8.8% 13.9% 6.4% 4.6% 3.5% 3.1% 1.7% 1.3% 0.4% 0.0%x264 [info]: ref B L0: 68.2% 14.7% 7.1% 3.8% 2.7% 2.0% 1.2% 0.4%x264 [info]: ref B L1: 90.7% 9.3%x264 [info]: SSIM Mean Y:0.9921249 (21.037db)x264 [info]: PSNR Mean Y:48.942 U:51.688 V:51.733 Avg:49.635 Global:48.869 kb/s:3914.98encoded 138625 frames, 8.53 fps, 3914.98 kb/s
GeneralUnique ID : 172150054523433560534027844588092448000 (0x8182E4FD85F2E2A4B8CF28784FC2DD00)Complete name : Bolt.2008.Rus.BDRip.720p.dfcbit.mkvFormat : MatroskaFormat version : Version 2File size : 4.36 GiBDuration : 1h 36mnOverall bit rate : 6 478 KbpsEncoded date : UTC 2014-04-03 16:48:51Writing application : mkvmerge v4.0.0 ('The Stars were mine') built on Jun 6 2010 16:18:42Writing library : libebml v1.0.0 + libmatroska v1.0.0
VideoID : 1Format : AVCFormat/Info : Advanced Video CodecFormat profile : High@L4.1Format settings, CABAC : YesFormat settings, ReFrames : 9 framesCodec ID : V_MPEG4/ISO/AVCDuration : 1h 36mnBit rate : 3 915 KbpsWidth : 1 280 pixelsHeight : 720 pixelsDisplay aspect ratio : 16:9Frame rate mode : ConstantFrame rate : 23.976 fpsColor space : YUVChroma subsampling : 4:2:0Bit depth : 8 bitsScan type : ProgressiveBits/(Pixel*Frame) : 0.177Stream size : 2.64 GiB (58%)Title : NTSC, 1280x720 (1.778:1), BDRip 720p - tRuAVC & Multfilmy [DFCbit]Writing library : x264 core 142 r2389kMod 956c8d8Encoding settings : cabac=1 / ref=9 / deblock=1:-2:-1 / analyse=0x3:0x133 / me=umh / subme=11 / psy=1 / fade_compensate=0.00 / psy_rd=0.63:0.00 / mixed_ref=1 / me_range=32 / chroma_me=1 / trellis=2 / 8x8dct=1 / cqm=0 / deadzone=21,11 / fast_pskip=0 / chroma_qp_offset=-2 / threads=12 / lookahead_threads=3 / sliced_threads=0 / nr=0 / decimate=1 / interlaced=0 / bluray_compat=0 / constrained_intra=0 / fgo=0 / bframes=12 / b_pyramid=2 / b_adapt=2 / b_bias=0 / direct=1 / weightb=1 / open_gop=0 / weightp=2 / keyint=250 / keyint_min=23 / scenecut=40 / intra_refresh=0 / rc_lookahead=70 / rc=2pass / mbtree=0 / bitrate=3915 / ratetol=1.0 / qcomp=0.81 / qpmin=0 / qpmax=69 / qpstep=4 / cplxblur=20.0 / qblur=0.5 / vbv_maxrate=50000 / vbv_bufsize=62500 / nal_hrd=none / filler=0 / ip_ratio=1.40 / pb_ratio=1.30 / aq=3:0.90Language : RussianDefault : YesForced : NoColor primaries : BT.709Transfer characteristics : BT.709Matrix coefficients : BT.709
Audio #1ID : 2Format : AC-3Format/Info : Audio Coding 3Mode extension : CM (complete main)Format settings, Endianness : BigCodec ID : A_AC3Duration : 1h 36mnBit rate mode : ConstantBit rate : 640 KbpsChannel(s) : 6 channelsChannel positions : Front: L C R, Side: L R, LFESampling rate : 48.0 KHzBit depth : 16 bitsCompression mode : LossyStream size : 441 MiB (10%)Title : AC3 EX, 6 ch, 48 kHz, 640 kbps - Дубляж | BD EURLanguage : RussianDefault : YesForced : No
Audio #2ID : 3Format : AC-3Format/Info : Audio Coding 3Mode extension : CM (complete main)Format settings, Endianness : BigCodec ID : A_AC3Duration : 1h 36mnBit rate mode : ConstantBit rate : 640 KbpsChannel(s) : 6 channelsChannel positions : Front: L C R, Side: L R, LFESampling rate : 48.0 KHzBit depth : 16 bitsCompression mode : LossyStream size : 441 MiB (10%)Title : AC3, 6 ch, 48 kHz, 640 kbps - AVO | Владимир КоролевLanguage : RussianDefault : NoForced : No
Audio #3ID : 4Format : AC-3Format/Info : Audio Coding 3Mode extension : CM (complete main)Format settings, Endianness : BigCodec ID : A_AC3Duration : 1h 36mnBit rate mode : ConstantBit rate : 640 KbpsChannel(s) : 6 channelsChannel positions : Front: L C R, Side: L R, LFESampling rate : 48.0 KHzBit depth : 16 bitsCompression mode : LossyStream size : 441 MiB (10%)Title : AC3 EX, 6 ch, 48 kHz, 640 kbps - Дубляж | BD 3D CEELanguage : UkrainianDefault : NoForced : No
Audio #4ID : 5Format : AC-3Format/Info : Audio Coding 3Mode extension : CM (complete main)Format settings, Endianness : BigCodec ID : A_AC3Duration : 1h 36mnBit rate mode : ConstantBit rate : 640 KbpsChannel(s) : 6 channelsChannel positions : Front: L C R, Side: L R, LFESampling rate : 48.0 KHzBit depth : 16 bitsCompression mode : LossyStream size : 441 MiB (10%)Title : AC3 EX, 6 ch, 48 kHz, 640 kbps - OriginalLanguage : EnglishDefault : NoForced : No
Text #1ID : 6Format : UTF-8Codec ID : S_TEXT/UTF8Codec ID/Info : UTF-8 Plain TextTitle : SRT, FullLanguage : RussianDefault : NoForced : No
Text #2ID : 7Format : UTF-8Codec ID : S_TEXT/UTF8Codec ID/Info : UTF-8 Plain TextTitle : SRT, ForcedLanguage : RussianDefault : NoForced : No
Text #3ID : 8Format : UTF-8Codec ID : S_TEXT/UTF8Codec ID/Info : UTF-8 Plain TextTitle : SRT, FullLanguage : UkrainianDefault : NoForced : No
Text #4ID : 9Format : UTF-8Codec ID : S_TEXT/UTF8Codec ID/Info : UTF-8 Plain TextTitle : SRT, ForcedLanguage : UkrainianDefault : NoForced : No
Text #5ID : 10Format : UTF-8Codec ID : S_TEXT/UTF8Codec ID/Info : UTF-8 Plain TextTitle : SRT, FullLanguage : EnglishDefault : NoForced : No
Text #6ID : 11Format : UTF-8Codec ID : S_TEXT/UTF8Codec ID/Info : UTF-8 Plain TextTitle : SRT, (SDH)Language : EnglishDefault : NoForced : No
Menu00:00:00.000 : ru:01. Начало00:02:31.651 : ru:02. 5 лет спустя00:11:00.660 : ru:03. Микрофон-пушка00:13:47.201 : ru:04. Защищая Пенни00:19:19.950 : ru:05. Неожиданный поворот00:24:18.874 : ru:06. Посылка пришла00:27:14.383 : ru:07. "Я знаю этого пса"00:29:48.703 : ru:08. Знакомство с Миттенами00:35:25.832 : ru:09. Дорожное путешествие00:42:09.569 : ru:10. Рино!00:51:41.974 : ru:11. Большой побег01:01:58.339 : ru:12. Как быть собакой01:08:16.008 : ru:13. "На расстоянии одной вафли"01:13:02.711 : ru:14. Соавторы01:18:53.061 : ru:15. Огонь!01:29:36.830 : ru:16. Финальные титры

Скриншоты

Локализация

--BDRip 720p


Source Blu-Ray

Релиз от групп | and | -Данный релиз не будет воспроизводиться на бытовых плеерах не поддерживающих MKV и H.264Обсуждение релизов в AVC формате || Свежие AVC рипы


Показать сообщения:    

Текущее время: 14-Дек 17:09

Часовой пояс: UTC ± 0


Вы не можете начинать темы
Вы не можете отвечать на сообщения
Вы не можете редактировать свои сообщения
Вы не можете удалять свои сообщения
Вы не можете голосовать в опросах
Вы не можете прикреплять файлы к сообщениям
Вы не можете скачивать файлы

!ВНИМАНИЕ!
Сайт не предоставляет электронные версии произведений, а занимается лишь коллекционированием и каталогизацией ссылок, присылаемых и публикуемых на форуме нашими читателями. Если вы являетесь правообладателем какого-либо представленного материала и не желаете, чтобы ссылка на него находилась в нашем каталоге, свяжитесь с нами, и мы незамедлительно удалим ее. Файлы для обмена на трекере предоставлены пользователями сайта, и администрация не несет ответственности за их содержание. Просьба не заливать файлы, защищенные авторскими правами, а также файлы нелегального содержания!