Волынов. Падение из космоса (Александр Гурешидзе) [2008, Документальный, DVB] :: Ивановский Торрент трекер
Важное объявление!
У Нас Все раздачи мультитрекерные, при нуле пиров в релизах, можете смело вставать на закачку!
 
Автор Сообщение

HUNTER

Стаж:
4 года 11 месяцев
Сообщений:
66045

Репутация: 101

[+] [-]
Вне форума [Профиль] [ЛС]

Падение из космоса
Год выпуска: 2008
Страна: Россия
Жанр: Документальный
Продолжительность: 00:38:37
Перевод: не требуется
Режиссер: Александр ГурешидзеОписание: Борис Валентинович Волынов – из первого отряда космонавтов. Его первый полет состоялся в 1969 году. И не просто полет. СССР запустил тогда два корабля. На одном – трое космонавтов, на другом – один. На орбите была проведена стыковка. Космонавты переходили из корабля на корабль. А потом – возвращение на землю. Приземление первого корабля прошло штатно, без неприятностей. Волынов спускался один.
Посадка оказалась очень сложной, аварийной. Системы не сработали, и спускаемый аппарат стал падать из космоса на землю. Жить Волынову оставалось 40 минут. В фильме рассказывается о том, как вел себя человек в этой экстремальной ситуации, как ему удалось выжить. В фильм включены фрагменты записи переговоров Волынова с ЦУПом во время аварийной посадки. Об этом сумасшедшем спуске рассказывает сам Борис Волынов и его товарищи по отряду космонавтов.
После травмы, полученной при аварийной посадке, Волынова исключили из отряда космонавтов. Врачи заявили, что он больше не будет летать даже на самолетах. Но этот человек сумел вернуться в отряд и еще раз слетать в космос…
Качество: DVB
Формат: MPEG-PS
Видео: MPEG, 704x576, 4:3, 3270 Kbps, 25 fps
Аудио: MPEG2, 192 Kbps, 48 KHz, 2 channels

MediaInfo

GeneralComplete name : S:\00. SpaceDust\01.USSR\2008 - Волынов. Падение из космоса (Александр Гурешидзе)\Волынов. Падение из космоса (2008).mpgFormat : MPEG-PSFile size : 976 MiBDuration : 38mn 37sOverall bit rate : 3 533 Kbps
VideoID : 224 (0xE0)Format : MPEG VideoFormat version : Version 2Format profile : Main@MainFormat settings, BVOP : YesFormat settings, Matrix : DefaultDuration : 38mn 37sBit rate mode : VariableBit rate : 3 270 KbpsNominal bit rate : 15.0 MbpsWidth : 704 pixelsHeight : 576 pixelsDisplay aspect ratio : 4:3Frame rate : 25.000 fpsStandard : PALColor space : YUVChroma subsampling : 4:2:0Bit depth : 8 bitsCompression mode : LossyBits/(Pixel*Frame) : 0.323Stream size : 904 MiB (93%)
AudioID : 192 (0xC0)Format : MPEG AudioFormat version : Version 1Format profile : Layer 2Duration : 38mn 37sBit rate mode : ConstantBit rate : 192 KbpsChannel(s) : 2 channelsSampling rate : 48.0 KHzCompression mode : LossyDelay relative to video : 22msStream size : 53.1 MiB (5%)

Скриншоты

На замену раздаче http://rutracker.org/forum/viewtopic.php?t=1326795 . В данной раздаче:
- качество видео и аудио такое же
- устранены ошибки контейнера
- вырезана реклама (фильм должен длиться 38 минут (подтверждающая ссылка), а не 44, как в той раздаче.

_________________
Показать сообщения:    

Текущее время: Сегодня 14:08

Часовой пояс: GMT



Вы не можете начинать темы
Вы не можете отвечать на сообщения
Вы не можете редактировать свои сообщения
Вы не можете удалять свои сообщения
Вы не можете голосовать в опросах
Вы не можете прикреплять файлы к сообщениям
Вы не можете скачивать файлы