Важное объявление!
У Нас Все раздачи мультитрекерные, при нуле пиров в релизах, можете смело вставать на закачку!
 
Автор Сообщение

HUNTER

Стаж:
4 года 5 месяцев
Сообщений:
60886

Репутация: 101

[+] [-]
Вне форума [Профиль] [ЛС]

Волшебный пинок-

Год выпуска: 2010
Страна: Россия
Сайт производителя: www.idsmart.ru
Тематика: Психология
Тип материала: Видеоурок-Продолжительность: 03:01:52
Автор: Вадим Шлахтер-Язык: Русский
Субтитры: Не требуются-Описание: Условно наше сообщество делится на овец, волков, сторожевых собак и пастухов.
Самое неприятное, что еще в школе нам прививается психология «овец» — быть смиренным, быть стадом, не уметь думать и решать самостоятельно.
Как отделаться от этих комплексов? Смотрите в новом тренинге Шлахтера.
Курс разделен на 5 частей и поэтапно рассказывает о самой проблеме и о том, как она решается системой психологических упражнений.
-Качество: SATRip
Формат: MP4
Видео кодек: DivX
Аудио кодек: AAC
Видео: AVC, 640x360 (16/9), 25.000 fps, 450 Kbps (0.080 bit/pixel)
Аудио: AAC LC, 44.1 KHz, 2 ch, 96.0 Kbps, VBR-

MediaInfo

Код: copyText_writeLink('this.parentNode.parentNode.nextSibling.nextSibling'); General
Complete name : D:\обучение 25,12\Шлахтер - «Волшебный пинок»\01.mp4
Format : MPEG-4
Format profile : Base Media
Codec ID : isom
File size : 154 MiB
Duration : 38mn 13s
Overall bit rate mode : Variable
Overall bit rate : 562 Kbps
Writing application : Lavf52.40.0
Video
ID : 1
Format : AVC
Format/Info : Advanced Video Codec
Format profile : [url=mailto:Baseline@L3.0]Baseline@L3.0[/url]
Format settings, CABAC : No
Format settings, ReFrames : 1 frame
Codec ID : avc1
Codec ID/Info : Advanced Video Coding
Duration : 38mn 13s
Bit rate mode : Variable
Bit rate : 450 Kbps
Width : 640 pixels
Height : 360 pixels
Display aspect ratio : 16:9
Frame rate mode : Constant
Frame rate : 25.000 fps
Color space : YUV
Chroma subsampling : 4:2:0
Bit depth : 8 bits
Scan type : Progressive
Bits/(Pixel*Frame) : 0.078
Stream size : 126 MiB (82%)
Writing library : x264 core 79
Encoding settings : cabac=0 / ref=1 / deblock=1:0:0 / analyse=0x1:0x131 / me=tesa / subme=9 / psy=1 / psy_rd=1.0:0.0 / mixed_ref=0 / me_range=24 / chroma_me=1 / trellis=0 / 8x8dct=0 / cqm=0 / deadzone=21,11 / chroma_qp_offset=-2 / threads=24 / nr=0 / decimate=1 / mbaff=0 / constrained_intra=0 / bframes=0 / wpredp=0 / keyint=250 / keyint_min=25 / scenecut=40 / rc_lookahead=40 / rc=cbr / mbtree=1 / bitrate=450 / ratetol=8.9 / qcomp=0.60 / qpmin=10 / qpmax=51 / qpstep=4 / vbv_maxrate=10000 / vbv_bufsize=10000 / ip_ratio=1.41 / aq=1:1.00
Audio
ID : 2
Format : AAC
Format/Info : Advanced Audio Codec
Format profile : LC
Codec ID : 40
Duration : 38mn 13s
Bit rate mode : Variable
Bit rate : 96.0 Kbps
Channel(s) : 2 channels
Channel positions : Front: L R
Sampling rate : 44.1 KHz
Compression mode : Lossy
Stream size : 26.4 MiB (17%)
- -

_________________
Показать сообщения:    

Текущее время: Сегодня 12:11

Часовой пояс: GMT



Вы не можете начинать темы
Вы не можете отвечать на сообщения
Вы не можете редактировать свои сообщения
Вы не можете удалять свои сообщения
Вы не можете голосовать в опросах
Вы не можете прикреплять файлы к сообщениям
Вы не можете скачивать файлы
Наши партнеры: интернет магазин Ивановского трикотажа textilla.ru