Важное объявление!
У Нас Все раздачи мультитрекерные, при нуле пиров в релизах, можете смело вставать на закачку!
 
Автор Сообщение

HUNTER

Стаж:
4 года 6 месяцев
Сообщений:
60899

Репутация: 101

[+] [-]
Вне форума [Профиль] [ЛС]

Волшебный меч: Спасение Камелота / Quest for Camelot
«Devon & Cornwall: A two-headed dragon with an identity crisis.»
Страна: США
Жанр: мультфильм, мюзикл, фэнтези, драма, комедия, приключения
Продолжительность: 01:25:56
Год выпуска: 1998
Перевод: Профессиональный (дублированный) R5
Русские субтитры: нет-Режиссёр: Фредерик Ду Чау / Frederik Du Chau-Роли озвучивали: Джессалин Гилсиг, Андреа Корр, Кэри Элвис, Брайан Уайт, Гари Олдман, Эрик Айдл, Дон Риклз, Джейн Сеймур, Селин Дион, Пирс Броснан-Описание: Все то же царство Камелот, все тот же король Артур, все тот же легендарный меч Экскалибур, который похищает злой рыцарь Рубер. Храбрая девушка по имени Кейли отправляется на поиски меча, ведомая ослепшим юношей по имени Гаррет. Они встречаются с забавным созданием - двухголовым драконом по имени Девон и Корнуол. Во время их волшебного и музыкального путешествия Кейли и Гаррет открывают для себя нескончаемую силу дружбы и отваги.-
Cэмпл | kinopoisk.ru | IMdB-Качество: WEB-DLRip | исх. [WEB-DL 720p]
Формат: AVI
Видео: 624x352 (16:9), 23.976 fps, XviD build 65 ~1081 kbps avg, 0.20 bit/pixel
Аудио: 48.0 kHz, MPEG Layer 3, 2 ch, ~128.00 kbps avg | (Dub) R5
Субтитры: Отсутствуют

Подробные технические данные

ОбщееПолное имя : A:\Фильмы\Quest.for.Camelot.1998.WEB-DLRip.XviD.749Mb.mp3.aviФормат : AVIФормат/Информация : Audio Video InterleaveРазмер файла : 749 МбайтПродолжительность : 1 ч. 25 м.Общий поток : 1219 Кбит/секПрограмма кодирования : VirtualDubMod 1.5.10.2 (build 2540/release)Библиотека кодирования : VirtualDubMod build 2540/release
ВидеоИдентификатор : 0Формат : MPEG-4 VisualПрофиль формата : Advanced Simple@L5Параметр BVOP формата : 1Параметр QPel формата : НетПараметр GMC формата : Без точки переходаПараметр матрицы формата : ВыборочнаяИдентификатор кодека : XVIDИдентификатор кодека/Подсказка : XviDПродолжительность : 1 ч. 25 м.Битрейт : 1081 Кбит/секШирина : 624 пикселяВысота : 352 пикселяСоотношение сторон : 16:9Частота кадров : 23,976 кадра/секЦветовое пространство : YUVСубдискретизация насыщенности : 4:2:0Битовая глубина : 8 битТип развёртки : ПрогрессивнаяМетод сжатия : С потерямиБит/(Пиксели*Кадры) : 0.205Размер потока : 665 Мбайт (89%)Библиотека кодирования : XviD 65
АудиоИдентификатор : 1Формат : MPEG AudioВерсия формата : Version 1Профиль формата : Layer 3Идентификатор кодека : 55Идентификатор кодека/Подсказка : MP3Продолжительность : 1 ч. 25 м.Вид битрейта : ПостоянныйБитрейт : 128 Кбит/секКаналы : 2 каналаЧастота : 48,0 КГцМетод сжатия : С потерямиРазмер потока : 78,7 Мбайт (11%)Выравнивание : Соединение по промежуткамПродолжительность промежутка : 42 мс. (1,00 видеокадр)Время предзагрузки промежутка : 504 мс.Библиотека кодирования : LAME3.99rНастройки программы : -m s -V 4 -q 2 -lowpass 17 -b 128

Скриншоты



_________________
Показать сообщения:    

Текущее время: Сегодня 01:22

Часовой пояс: GMT



Вы не можете начинать темы
Вы не можете отвечать на сообщения
Вы не можете редактировать свои сообщения
Вы не можете удалять свои сообщения
Вы не можете голосовать в опросах
Вы не можете прикреплять файлы к сообщениям
Вы не можете скачивать файлы
Наши партнеры: интернет магазин Ивановского трикотажа textilla.ru