Важное объявление!
У Нас Все раздачи мультитрекерные, при нуле пиров в релизах, можете смело вставать на закачку!
Статистика раздачи
Размер:     |    Зарегистрирован:     |    Скачан:     |   
Нет
 
     
 
 
Автор Сообщение

HUNTER

Стаж:
5 лет 1 месяц
Сообщений:
68439

Репутация: 101

[+] [-]
Вне форума [Профиль] [ЛС]

Волшебный меч: Спасение КамелотаQuest for Camelot«Devon & Cornwall: A two-headed dragon with an identity crisis»-
Страна: США
Жанр: мультфильм, мюзикл, фэнтези, драма, комедия, приключения, семейный
Продолжительность: 01:25:56
Год выпуска: 1998
Перевод: Профессиональный (полное дублирование)
Перевод 2: Профессиональный (многоголосый закадровый)
Русские субтитры Есть-Режиссер: Фредерик Ду Чау / Frederik Du Chau-Описание: Все то же царство Камелот, все тот же король Артур, все тот же легендарный меч Экскалибур, который похищает злой рыцарь Рубер. Храбрая девушка по имени Кейли отправляется на поиски меча, ведомая ослепшим юношей по имени Гаррет.
Они встречаются с забавным созданием - двухголовым драконом по имени Девон и Корнуол. Во время их волшебного и музыкального путешествия Кейли и Гаррет открывают для себя нескончаемую силу дружбы и отваги.-
MPAA: G - Нет возрастных ограничений-Релиз: by Steal Раздача от: -Качество: WEB-DL 720p
Контейнер: MKV
Видео: AVC, 1280x720 (16:9), 4064 kbps, 23,976 fps, 0,184 bpp
Аудио №1: русский / AC3 / 5.1 / 48 kHz / 384 kbps / 16 bit - Дубляж, R5
Аудио №2: русский / AC3 / 2.0 / 48 kHz / 192 kbps / 16 bit - Многоголосый закадровый, VHS
Аудио №3: украинский / AC3 / 2.0 / 48 kHz / 192 kbps / 16 bit - Двухголосый закадровый, (1+1)
Аудио №4: английский / AC3 / 5.1 / 48 kHz / 384 kbps / 16 bit
Субтитры: Русские, Английские
Навигация по главам: есть-

Media Info

General
Unique ID : 206957187665041500331633478480165788915 (0x9BB28126747CEE798A0F3FB6B6EEDCF3)
Complete name : C:\Users\Pc\Desktop\Quest.for.Camelot.1998.720p.WEB-DL.2xRus.Ukr.Eng.HDCLUB.mkv
Format : Matroska
Format version : Version 2
File size : 3.20 GiB
Duration : 1h 25mn
Overall bit rate : 5 322 Kbps
Encoded date : UTC 2014-04-03 18:54:49
Writing application : mkvmerge v5.7.0 ('The Whirlwind') built on Jul 8 2012 20:08:51
Writing library : libebml v1.2.3 + libmatroska v1.3.0
Video
ID : 1
Format : AVC
Format/Info : Advanced Video Codec
Format profile : High@L3.1
Format settings, CABAC : No
Format settings, ReFrames : 2 frames
Format settings, GOP : N=1
Codec ID : V_MPEG4/ISO/AVC
Duration : 1h 25mn
Bit rate : 4 064 Kbps
Width : 1 280 pixels
Height : 720 pixels
Display aspect ratio : 16:9
Frame rate : 23.976 fps
Color space : YUV
Chroma subsampling : 4:2:0
Bit depth : 8 bits
Scan type : Progressive
Bits/(Pixel*Frame) : 0.184
Stream size : 2.44 GiB (76%)
Title : WEB-DL 720p (iTunes US)
Language : English
Default : Yes
Forced : No
Color primaries : BT.709-5, BT.1361, IEC 61966-2-4, SMPTE RP177
Transfer characteristics : BT.709-5, BT.1361
Matrix coefficients : BT.709-5, BT.1361, IEC 61966-2-4 709, SMPTE RP177
Audio #1
ID : 2
Format : AC-3
Format/Info : Audio Coding 3
Mode extension : CM (complete main)
Codec ID : A_AC3
Duration : 1h 25mn
Bit rate mode : Constant
Bit rate : 384 Kbps
Channel(s) : 6 channels
Channel positions : Front: L C R, Side: L R, LFE
Sampling rate : 48.0 KHz
Bit depth : 16 bits
Compression mode : Lossy
Stream size : 236 MiB (7%)
Title : AC3 5.1 384Kbps | Дубляж [R5] |
Language : Russian
Default : Yes
Forced : No
Audio #2
ID : 3
Format : AC-3
Format/Info : Audio Coding 3
Mode extension : CM (complete main)
Codec ID : A_AC3
Duration : 1h 25mn
Bit rate mode : Constant
Bit rate : 192 Kbps
Channel(s) : 2 channels
Channel positions : Front: L R
Sampling rate : 48.0 KHz
Bit depth : 16 bits
Compression mode : Lossy
Stream size : 118 MiB (4%)
Title : AC3 2.0 192Kbps | Профессиональный, многоголосый [VHS] |
Language : Russian
Default : No
Forced : No
Audio #3
ID : 4
Format : AC-3
Format/Info : Audio Coding 3
Mode extension : CM (complete main)
Codec ID : A_AC3
Duration : 1h 25mn
Bit rate mode : Constant
Bit rate : 192 Kbps
Channel(s) : 2 channels
Channel positions : Front: L R
Sampling rate : 48.0 KHz
Bit depth : 16 bits
Compression mode : Lossy
Stream size : 118 MiB (4%)
Title : AC3 2.0 192Kbps | Профессиональный, двухголосый (1+1) |
Language : Ukrainian
Default : No
Forced : No
Audio #4
ID : 5
Format : AC-3
Format/Info : Audio Coding 3
Mode extension : CM (complete main)
Codec ID : A_AC3
Duration : 1h 25mn
Bit rate mode : Constant
Bit rate : 384 Kbps
Channel(s) : 6 channels
Channel positions : Front: L C R, Side: L R, LFE
Sampling rate : 48.0 KHz
Bit depth : 16 bits
Compression mode : Lossy
Stream size : 236 MiB (7%)
Title : AC3 5.1 384Kbps | Original |
Language : English
Default : No
Forced : No
Text #1
ID : 6
Format : UTF-8
Codec ID : S_TEXT/UTF8
Codec ID/Info : UTF-8 Plain Text
Title : Full
Language : Russian
Default : No
Forced : No
Text #2
ID : 7
Format : UTF-8
Codec ID : S_TEXT/UTF8
Codec ID/Info : UTF-8 Plain Text
Title : Full
Language : English
Default : No
Forced : No
Menu
00:00:00.000 : en:The Camelot Saga
00:04:13.127 : en:"United We Stand"
00:06:34.602 : en:Ruber Rebels
00:08:06.944 : en:"On My Father's Wings"
00:12:37.047 : en:Griffin Attacks
00:13:50.746 : en:Excalibur Lost
00:14:54.935 : en:Where's the Glory?
00:16:48.298 : en:Invaded ("Ruber")
00:21:42.217 : en:"The Prayer"
00:24:55.410 : en:Forbidden Forest
00:26:00.350 : en:Rescued by Garrett
00:27:05.582 : en:"I Stand All Alone"
00:31:36.352 : en:Searchers
00:33:30.299 : en:Dragon Country
00:34:57.553 : en:Devon and Cornwall
00:36:33.274 : en:Fiery Attack
00:38:26.971 : en:"If I Didn't Have You"
00:42:17.660 : en:Join Us, Find Them
00:44:07.436 : en:Good as Any Knight
00:46:12.478 : en:Face to Face
00:48:06.049 : en:Close Call
00:50:04.251 : en:"Looking Through Your Eyes"
00:54:06.618 : en:The Ogre; a Clue
00:55:55.268 : en:Wake-Up Call
00:57:52.802 : en:Slip-Sliding Away
00:59:31.192 : en:Where He Belongs
01:01:26.808 : en:"I Stand All Alone" (Reprise)
01:02:21.612 : en:In the Wrong Hands
01:06:29.860 : en:Inside Camelot
01:07:38.054 : en:Under Siege
01:09:42.887 : en:Hayride to Castle
01:11:06.387 : en:The Griffin Burned
01:11:58.981 : en:No False King
01:12:50.866 : en:His Unlucky Day
01:14:52.738 : en:Just Knighted
01:16:48.562 : en:End Credits

О исходнике

  • Исходный WEB-DL куплен в iTunes (US).
  • Сохранены и подписаны оригинальные чаптеры.
  • Спасибо: erik945 за дорожку №2.
  • Спасибо: ресурсу hurtom за дорожку №3.
  • Оригинальный Soundtrack к мультфильму. Спасибо: Ультрычу.

Скриншоты


_________________
Показать сообщения:    

Текущее время: Сегодня 22:42

Часовой пояс: GMT



Вы не можете начинать темы
Вы не можете отвечать на сообщения
Вы не можете редактировать свои сообщения
Вы не можете удалять свои сообщения
Вы не можете голосовать в опросах
Вы не можете прикреплять файлы к сообщениям
Вы не можете скачивать файлы