Важное объявление!
У Нас Все раздачи мультитрекерные, при нуле пиров в релизах, можете смело вставать на закачку!
 
Автор Сообщение

HUNTER

Стаж:
4 года 8 месяцев
Сообщений:
62060

Репутация: 101

[+] [-]
Вне форума [Профиль] [ЛС]

Волшебное дерево / Magiczne drzewo
Страна: Польша
Студия: (Polish Film Institute, Studio Lunapark, Telewizja Polska)
Жанр: семейный, детский, приключения, фэнтези
Год выпуска: 2009
Продолжительность: 01:23:36
Перевод: Профессиональный (многоголосый)
Cубтитры: нет
Оригинальная аудиодорожка: польский
Режиссер: Анджей Малешка / Andrzej Maleszka
В ролях: Филип Фабись , Майя Томавска , Адам Щегула , Анджей Чира , Агнешка Гроховска , Артур Янусяк , Анна Гузик
Описание: Однажды во время грозы молния ударила в огромный дуб. Люди распилили поваленное дерево на доски и изготовили из них мебель и игрушки. Они не знали, что дерево – не простое, а волшебное. В дубе была заключена огромная сила, и в каждом предмете осталась ее частичка. Вещи отправили в магазины по всему миру. И с того дня с теми, в чьи руки они попадали, стали происходить необыкновенные истории...
Доп. информация: СБОРКА НОРДЕРА
Бонусы: НЕТ
Меню: ЕСТЬ
Сэмпл: http://multi-up.com/1118537
Тип релиза: DVD5 (Custom)
Контейнер: DVD-Video
Видео: PAL 16:9 (720x576) VBR
Аудио: AC3, 3/2 (L,C,R,SL,SR)+LFE ch, 448 kbps, Delay 0 mSec (RUS)
Аудио 2: AC3, 3/2 (L,C,R,SL,SR)+LFE ch, 448 kbps, Delay 0 mSec (POL)

DVDinfo

Title: Magiczne drzewo (2009) DVD
Size: 4.63 Gb ( 4 850 748,00 KBytes ) - DVD-9
Enabled regions: 1, 2, 3, 4, 5, 6, 7, 8
VTS_01 :
Play Length: 00:00:00
Video: PAL 16:9 (720x576) VBR, Auto Letterboxed
VTS_02 :
Play Length: 01:23:36+{01:23:36}
Video: PAL 16:9 (720x576) VBR, Auto Letterboxed
Audio:
Russian (Dolby AC3, 6 ch)
Polish (Dolby AC3, 6 ch)
* Menus Information *
VIDEO_TS Menu
Video:
NTSC 4:3 (720x480) VBR
Auto Pan&Scan, Auto Letterboxed
English Language Unit :
Title Menu
VTS_01 Menu
Video:
PAL 16:9 (720x576) VBR
Auto Letterboxed
Audio:
Not specified (Dolby AC3, 2 ch)
English Language Unit :
Root Menu
VTS_02 Menu
Video:
NTSC 4:3 (720x480) VBR
Auto Pan&Scan, Auto Letterboxed
English Language Unit :
Root Menu
Chapter (PTT) Menu

MediaInfo

Общее
Полное имя : I:\ПЕРЕВЕДЕННЫЕ ФИЛЬМЫ НА DVD\Волшебное дерево Magiczne drzewo (2009) Польша DVD-5\04770.jpg
Формат : JPEG
Размер файла : 171 Кбайт
Изображения
Формат : JPEG
Ширина : 550 пикселей
Высота : 795 пикселей
Цветовое пространство : YUV
Субдискретизация насыщенности : 4:4:4
Битовая глубина : 8 бит
Метод сжатия : С потерями
Размер потока : 171 Кбайт (100%)
Общее
Полное имя : I:\ПЕРЕВЕДЕННЫЕ ФИЛЬМЫ НА DVD\Волшебное дерево Magiczne drzewo (2009) Польша DVD-5\Magiczne drzewo (2009) DVD\VIDEO_TS\VIDEO_TS.BUP
Формат : DVD Video
Профиль формата : Menu
Размер файла : 10,0 Кбайт
Режим общего битрейта : Переменный
Видео
Идентификатор : 224 (0xE0)
Формат : MPEG Video
Версия формата : Version 1
Вид битрейта : Переменный
Ширина : 720 пикселей
Высота : 480 пикселей
Соотношение сторон : 4:3
Частота кадров : 29,970 (29970/1000) кадров/сек
Стандарт вещания : NTSC
Метод сжатия : С потерями
Общее
Полное имя : I:\ПЕРЕВЕДЕННЫЕ ФИЛЬМЫ НА DVD\Волшебное дерево Magiczne drzewo (2009) Польша DVD-5\Magiczne drzewo (2009) DVD\VIDEO_TS\VIDEO_TS.IFO
Формат : DVD Video
Профиль формата : Menu
Размер файла : 10,0 Кбайт
Режим общего битрейта : Переменный
Видео
Идентификатор : 224 (0xE0)
Формат : MPEG Video
Версия формата : Version 1
Вид битрейта : Переменный
Ширина : 720 пикселей
Высота : 480 пикселей
Соотношение сторон : 4:3
Частота кадров : 29,970 (29970/1000) кадров/сек
Стандарт вещания : NTSC
Метод сжатия : С потерями
Общее
Полное имя : I:\ПЕРЕВЕДЕННЫЕ ФИЛЬМЫ НА DVD\Волшебное дерево Magiczne drzewo (2009) Польша DVD-5\Magiczne drzewo (2009) DVD\VIDEO_TS\VTS_01_0.BUP
Формат : DVD Video
Профиль формата : Program
Размер файла : 22,0 Кбайт
Продолжительность : 400 мс.
Режим общего битрейта : Переменный
Общий поток : 451 Кбит/сек
Видео
Идентификатор : 224 (0xE0)
Формат : MPEG Video
Версия формата : Version 2
Продолжительность : 400 мс.
Вид битрейта : Переменный
Ширина : 720 пикселей
Высота : 576 пикселей
Соотношение сторон : 16:9
Частота кадров : 25,000 кадров/сек
Стандарт вещания : PAL
Метод сжатия : С потерями
Аудио
Формат : AC-3
Формат/Информация : Audio Coding 3
Продолжительность : 400 мс.
Каналы : 2 канала
Частота : 48,0 КГц
Метод сжатия : С потерями
Язык : Polish
Меню
Продолжительность : 400 мс.
00:00:00.000 : Chapter 1
Общее
Полное имя : I:\ПЕРЕВЕДЕННЫЕ ФИЛЬМЫ НА DVD\Волшебное дерево Magiczne drzewo (2009) Польша DVD-5\Magiczne drzewo (2009) DVD\VIDEO_TS\VTS_01_0.IFO
Формат : DVD Video
Профиль формата : Program
Размер файла : 22,0 Кбайт
Продолжительность : 400 мс.
Режим общего битрейта : Переменный
Общий поток : 451 Кбит/сек
Видео
Идентификатор : 224 (0xE0)
Формат : MPEG Video
Версия формата : Version 2
Продолжительность : 400 мс.
Вид битрейта : Переменный
Ширина : 720 пикселей
Высота : 576 пикселей
Соотношение сторон : 16:9
Частота кадров : 25,000 кадров/сек
Стандарт вещания : PAL
Метод сжатия : С потерями
Аудио
Формат : AC-3
Формат/Информация : Audio Coding 3
Продолжительность : 400 мс.
Каналы : 2 канала
Частота : 48,0 КГц
Метод сжатия : С потерями
Язык : Polish
Меню
Продолжительность : 400 мс.
00:00:00.000 : Chapter 1
Общее
Полное имя : I:\ПЕРЕВЕДЕННЫЕ ФИЛЬМЫ НА DVD\Волшебное дерево Magiczne drzewo (2009) Польша DVD-5\Magiczne drzewo (2009) DVD\VIDEO_TS\VTS_01_0.VOB
Формат : MPEG-PS
Размер файла : 156 Мбайт
Продолжительность : 30 с.
Общий поток : 43,7 Мбит/сек
Видео
Идентификатор : 224 (0xE0)
Формат : MPEG Video
Версия формата : Version 2
Профиль формата : Main@Main
Параметр BVOP формата : Да
Параметр матрицы формата : По умолчанию
Параметр GOP формата : M=3, N=12
Структура изображения : Frame
Продолжительность : 30 с.
Битрейт : 42,6 Мбит/сек
Максимальный битрейт : 9000 Кбит/сек
Ширина : 720 пикселей
Высота : 576 пикселей
Соотношение сторон : 16:9
Частота кадров : 25,000 кадров/сек
Стандарт вещания : PAL
Цветовое пространство : YUV
Субдискретизация насыщенности : 4:2:0
Битовая глубина : 8 бит
Тип развёртки : Чересстрочная
Порядок развёртки : Нижнее поле первое
Метод сжатия : С потерями
Бит/(Пиксели*Кадры) : 4.107
Временной код первого кадра : 00:00:00:00
Оригинал временного кода : Group of pictures header
GOP, открыто/закрыто : Закрыто
Размер потока : 152 Мбайт (97%)
Аудио
Идентификатор : 189 (0xBD)-128 (0x80)
Формат : AC-3
Формат/Информация : Audio Coding 3
Профиль формата : Dolby Digital
Расширение режима : CM (complete main)
Параметр Endianness формата : Big
Режим смешивания : DVD-Video
Продолжительность : 29 с.
Вид битрейта : Постоянный
Битрейт : 224 Кбит/сек
Каналы : 2 канала
Расположение каналов : Front: L R
Частота : 48,0 КГц
Частота кадров : 31,250 кадров/сек (1536 spf)
Метод сжатия : С потерями
Размер потока : 820 Кбайт (1%)
Текст #1
Идентификатор : 189 (0xBD)-32 (0x20)
Формат : RLE
Формат/Информация : Run-length encoding
Режим смешивания : DVD-Video
Текст #2
Идентификатор : 189 (0xBD)-33 (0x21)
Формат : RLE
Формат/Информация : Run-length encoding
Режим смешивания : DVD-Video
Меню
Общее
Полное имя : I:\ПЕРЕВЕДЕННЫЕ ФИЛЬМЫ НА DVD\Волшебное дерево Magiczne drzewo (2009) Польша DVD-5\Magiczne drzewo (2009) DVD\VIDEO_TS\VTS_01_1.VOB
Формат : MPEG-PS
Размер файла : 14,0 Кбайт
Продолжительность : 400 мс.
Общий поток : 287 Кбит/сек
Библиотека кодирования : encoded by TMPGEnc (ver. 2.524.63.181)
Видео
Идентификатор : 224 (0xE0)
Формат : MPEG Video
Версия формата : Version 2
Профиль формата : Main@Main
Параметр BVOP формата : Нет
Параметр матрицы формата : По умолчанию
Продолжительность : 400 мс.
Максимальный битрейт : 100,0 Кбит/сек
Ширина : 720 пикселей
Высота : 576 пикселей
Соотношение сторон : 4:3
Частота кадров : 25,000 кадров/сек
Стандарт вещания : PAL
Цветовое пространство : YUV
Субдискретизация насыщенности : 4:2:0
Битовая глубина : 8 бит
Тип развёртки : Прогрессивная
Метод сжатия : С потерями
Временной код первого кадра : 00:00:00:00
Оригинал временного кода : Group of pictures header
Библиотека кодирования : TMPGEnc 2.524.63.181
Основные цвета : BT.601 PAL
Характеристики трансфера : BT.470 System B, BT.470 System G
Коэффициенты матрицы : BT.601
Меню
Общее
Полное имя : I:\ПЕРЕВЕДЕННЫЕ ФИЛЬМЫ НА DVD\Волшебное дерево Magiczne drzewo (2009) Польша DVD-5\Magiczne drzewo (2009) DVD\VIDEO_TS\VTS_02_0.BUP
Формат : DVD Video
Профиль формата : Program
Размер файла : 62,0 Кбайт
Продолжительность : 1 ч. 23 м.
Режим общего битрейта : Переменный
Общий поток : 101 бит/сек
Видео
Идентификатор : 224 (0xE0)
Формат : MPEG Video
Версия формата : Version 2
Продолжительность : 1 ч. 23 м.
Вид битрейта : Переменный
Ширина : 720 пикселей
Высота : 576 пикселей
Соотношение сторон : 16:9
Частота кадров : 25,000 кадров/сек
Стандарт вещания : PAL
Метод сжатия : С потерями
Аудио #1
Идентификатор : 128 (0x80)
Формат : AC-3
Формат/Информация : Audio Coding 3
Продолжительность : 1 ч. 23 м.
Каналы : 6 каналов
Частота : 48,0 КГц
Метод сжатия : С потерями
Язык : Russian
Аудио #2
Идентификатор : 129 (0x81)
Формат : AC-3
Формат/Информация : Audio Coding 3
Продолжительность : 1 ч. 23 м.
Каналы : 6 каналов
Частота : 48,0 КГц
Метод сжатия : С потерями
Язык : Polish
Меню #1
Продолжительность : 1 ч. 23 м.
00:00:00.000 : Chapter 1
00:04:13.760 : Chapter 2
00:08:36.880 : Chapter 3
00:13:34.320 : Chapter 4
00:18:04.200 : Chapter 5
00:24:32.640 : Chapter 6
00:30:27.800 : Chapter 7
00:37:53.440 : Chapter 8
00:43:13.240 : Chapter 9
00:47:32.200 : Chapter 10
00:51:11.120 : Chapter 11
00:56:51.200 : Chapter 12
01:01:16.400 : Chapter 13
01:06:07.080 : Chapter 14
01:13:24.920 : Chapter 15
01:20:45.360 : Chapter 16
List (Audio) : 0 / 1
Меню #2
Продолжительность : 1 ч. 23 м.
00:00:00.000 : Chapter 1
00:04:13.760 : Chapter 2
00:08:36.880 : Chapter 3
00:13:34.320 : Chapter 4
00:18:04.200 : Chapter 5
00:24:32.640 : Chapter 6
00:30:27.800 : Chapter 7
00:37:53.440 : Chapter 8
00:43:13.240 : Chapter 9
00:47:32.200 : Chapter 10
00:51:11.120 : Chapter 11
00:56:51.200 : Chapter 12
01:01:16.400 : Chapter 13
01:06:07.080 : Chapter 14
01:13:24.920 : Chapter 15
01:20:45.360 : Chapter 16
List (Audio) : 0 / 1
Общее
Полное имя : I:\ПЕРЕВЕДЕННЫЕ ФИЛЬМЫ НА DVD\Волшебное дерево Magiczne drzewo (2009) Польша DVD-5\Magiczne drzewo (2009) DVD\VIDEO_TS\VTS_02_0.IFO
Формат : DVD Video
Профиль формата : Program
Размер файла : 62,0 Кбайт
Продолжительность : 1 ч. 23 м.
Режим общего битрейта : Переменный
Общий поток : 101 бит/сек
Видео
Идентификатор : 224 (0xE0)
Формат : MPEG Video
Версия формата : Version 2
Продолжительность : 1 ч. 23 м.
Вид битрейта : Переменный
Ширина : 720 пикселей
Высота : 576 пикселей
Соотношение сторон : 16:9
Частота кадров : 25,000 кадров/сек
Стандарт вещания : PAL
Метод сжатия : С потерями
Аудио #1
Идентификатор : 128 (0x80)
Формат : AC-3
Формат/Информация : Audio Coding 3
Продолжительность : 1 ч. 23 м.
Каналы : 6 каналов
Частота : 48,0 КГц
Метод сжатия : С потерями
Язык : Russian
Аудио #2
Идентификатор : 129 (0x81)
Формат : AC-3
Формат/Информация : Audio Coding 3
Продолжительность : 1 ч. 23 м.
Каналы : 6 каналов
Частота : 48,0 КГц
Метод сжатия : С потерями
Язык : Polish
Меню #1
Продолжительность : 1 ч. 23 м.
00:00:00.000 : Chapter 1
00:04:13.760 : Chapter 2
00:08:36.880 : Chapter 3
00:13:34.320 : Chapter 4
00:18:04.200 : Chapter 5
00:24:32.640 : Chapter 6
00:30:27.800 : Chapter 7
00:37:53.440 : Chapter 8
00:43:13.240 : Chapter 9
00:47:32.200 : Chapter 10
00:51:11.120 : Chapter 11
00:56:51.200 : Chapter 12
01:01:16.400 : Chapter 13
01:06:07.080 : Chapter 14
01:13:24.920 : Chapter 15
01:20:45.360 : Chapter 16
List (Audio) : 0 / 1
Меню #2
Продолжительность : 1 ч. 23 м.
00:00:00.000 : Chapter 1
00:04:13.760 : Chapter 2
00:08:36.880 : Chapter 3
00:13:34.320 : Chapter 4
00:18:04.200 : Chapter 5
00:24:32.640 : Chapter 6
00:30:27.800 : Chapter 7
00:37:53.440 : Chapter 8
00:43:13.240 : Chapter 9
00:47:32.200 : Chapter 10
00:51:11.120 : Chapter 11
00:56:51.200 : Chapter 12
01:01:16.400 : Chapter 13
01:06:07.080 : Chapter 14
01:13:24.920 : Chapter 15
01:20:45.360 : Chapter 16
List (Audio) : 0 / 1
Общее
Полное имя : I:\ПЕРЕВЕДЕННЫЕ ФИЛЬМЫ НА DVD\Волшебное дерево Magiczne drzewo (2009) Польша DVD-5\Magiczne drzewo (2009) DVD\VIDEO_TS\VTS_02_1.VOB
Формат : MPEG-PS
Размер файла : 1024 Мбайт
Продолжительность : 19 м.
Режим общего битрейта : Переменный
Общий поток : 7361 Кбит/сек
Видео
Идентификатор : 224 (0xE0)
Формат : MPEG Video
Версия формата : Version 2
Профиль формата : Main@Main
Параметр BVOP формата : Да
Параметр матрицы формата : По умолчанию
Параметр GOP формата : M=3, N=13
Структура изображения : Frame
Продолжительность : 19 м.
Вид битрейта : Переменный
Битрейт : 6319 Кбит/сек
Максимальный битрейт : 8500 Кбит/сек
Ширина : 720 пикселей
Высота : 576 пикселей
Соотношение сторон : 2,40:1
Частота кадров : 25,000 кадров/сек
Стандарт вещания : PAL
Цветовое пространство : YUV
Субдискретизация насыщенности : 4:2:0
Битовая глубина : 8 бит
Тип развёртки : Чересстрочная
Порядок развёртки : Верхнее поле первое
Метод сжатия : С потерями
Бит/(Пиксели*Кадры) : 0.609
Временной код первого кадра : 09:59:30:00
Оригинал временного кода : Group of pictures header
GOP, открыто/закрыто : Открыто
Размер потока : 879 Мбайт (86%)
Основные цвета : BT.601 PAL
Характеристики трансфера : BT.470 System B, BT.470 System G
Коэффициенты матрицы : BT.601
Аудио #1
Идентификатор : 189 (0xBD)-128 (0x80)
Формат : AC-3
Формат/Информация : Audio Coding 3
Расширение режима : CM (complete main)
Параметр Endianness формата : Big
Режим смешивания : DVD-Video
Продолжительность : 19 м.
Вид битрейта : Постоянный
Битрейт : 448 Кбит/сек
Каналы : 6 каналов
Расположение каналов : Front: L C R, Side: L R, LFE
Частота : 48,0 КГц
Частота кадров : 31,250 кадров/сек (1536 spf)
Метод сжатия : С потерями
Размер потока : 62,3 Мбайт (6%)
Аудио #2
Идентификатор : 189 (0xBD)-129 (0x81)
Формат : AC-3
Формат/Информация : Audio Coding 3
Расширение режима : CM (complete main)
Параметр Endianness формата : Big
Режим смешивания : DVD-Video
Продолжительность : 19 м.
Вид битрейта : Постоянный
Битрейт : 448 Кбит/сек
Каналы : 6 каналов
Расположение каналов : Front: L C R, Side: L R, LFE
Частота : 48,0 КГц
Частота кадров : 31,250 кадров/сек (1536 spf)
Метод сжатия : С потерями
Размер потока : 62,3 Мбайт (6%)
Меню
Общее
Полное имя : I:\ПЕРЕВЕДЕННЫЕ ФИЛЬМЫ НА DVD\Волшебное дерево Magiczne drzewo (2009) Польша DVD-5\Magiczne drzewo (2009) DVD\VIDEO_TS\VTS_02_2.VOB
Формат : MPEG-PS
Размер файла : 1024 Мбайт
Продолжительность : 19 м.
Режим общего битрейта : Переменный
Общий поток : 7526 Кбит/сек
Видео
Идентификатор : 224 (0xE0)
Формат : MPEG Video
Версия формата : Version 2
Профиль формата : Main@Main
Параметр BVOP формата : Да
Параметр матрицы формата : По умолчанию
Параметр GOP формата : M=3, N=13
Структура изображения : Frame
Продолжительность : 19 м.
Вид битрейта : Переменный
Битрейт : 6480 Кбит/сек
Максимальный битрейт : 8500 Кбит/сек
Ширина : 720 пикселей
Высота : 576 пикселей
Соотношение сторон : 2,40:1
Частота кадров : 25,000 кадров/сек
Стандарт вещания : PAL
Цветовое пространство : YUV
Субдискретизация насыщенности : 4:2:0
Битовая глубина : 8 бит
Тип развёртки : Чересстрочная
Порядок развёртки : Верхнее поле первое
Метод сжатия : С потерями
Бит/(Пиксели*Кадры) : 0.625
Временной код первого кадра : 10:18:57:10
Оригинал временного кода : Group of pictures header
GOP, открыто/закрыто : Открыто
Размер потока : 881 Мбайт (86%)
Основные цвета : BT.601 PAL
Характеристики трансфера : BT.470 System B, BT.470 System G
Коэффициенты матрицы : BT.601
Аудио #1
Идентификатор : 189 (0xBD)-128 (0x80)
Формат : AC-3
Формат/Информация : Audio Coding 3
Расширение режима : CM (complete main)
Параметр Endianness формата : Big
Режим смешивания : DVD-Video
Продолжительность : 19 м.
Вид битрейта : Постоянный
Битрейт : 448 Кбит/сек
Каналы : 6 каналов
Расположение каналов : Front: L C R, Side: L R, LFE
Частота : 48,0 КГц
Частота кадров : 31,250 кадров/сек (1536 spf)
Метод сжатия : С потерями
Задержка видео : -648 мс.
Размер потока : 61,0 Мбайт (6%)
Аудио #2
Идентификатор : 189 (0xBD)-129 (0x81)
Формат : AC-3
Формат/Информация : Audio Coding 3
Расширение режима : CM (complete main)
Параметр Endianness формата : Big
Режим смешивания : DVD-Video
Продолжительность : 19 м.
Вид битрейта : Постоянный
Битрейт : 448 Кбит/сек
Каналы : 6 каналов
Расположение каналов : Front: L C R, Side: L R, LFE
Частота : 48,0 КГц
Частота кадров : 31,250 кадров/сек (1536 spf)
Метод сжатия : С потерями
Задержка видео : -648 мс.
Размер потока : 61,0 Мбайт (6%)
Меню
Общее
Полное имя : I:\ПЕРЕВЕДЕННЫЕ ФИЛЬМЫ НА DVD\Волшебное дерево Magiczne drzewo (2009) Польша DVD-5\Magiczne drzewo (2009) DVD\VIDEO_TS\VTS_02_3.VOB
Формат : MPEG-PS
Размер файла : 1024 Мбайт
Продолжительность : 18 м.
Режим общего битрейта : Переменный
Общий поток : 7623 Кбит/сек
Видео
Идентификатор : 224 (0xE0)
Формат : MPEG Video
Версия формата : Version 2
Профиль формата : Main@Main
Параметр BVOP формата : Да
Параметр матрицы формата : По умолчанию
Параметр GOP формата : M=3, N=13
Структура изображения : Frame
Продолжительность : 18 м.
Вид битрейта : Переменный
Битрейт : 6575 Кбит/сек
Максимальный битрейт : 8500 Кбит/сек
Ширина : 720 пикселей
Высота : 576 пикселей
Соотношение сторон : 2,40:1
Частота кадров : 25,000 кадров/сек
Стандарт вещания : PAL
Цветовое пространство : YUV
Субдискретизация насыщенности : 4:2:0
Битовая глубина : 8 бит
Тип развёртки : Чересстрочная
Порядок развёртки : Верхнее поле первое
Метод сжатия : С потерями
Бит/(Пиксели*Кадры) : 0.634
Временной код первого кадра : 10:37:58:20
Оригинал временного кода : Group of pictures header
GOP, открыто/закрыто : Открыто
Размер потока : 883 Мбайт (86%)
Основные цвета : BT.601 PAL
Характеристики трансфера : BT.470 System B, BT.470 System G
Коэффициенты матрицы : BT.601
Аудио #1
Идентификатор : 189 (0xBD)-128 (0x80)
Формат : AC-3
Формат/Информация : Audio Coding 3
Расширение режима : CM (complete main)
Параметр Endianness формата : Big
Режим смешивания : DVD-Video
Продолжительность : 18 м.
Вид битрейта : Постоянный
Битрейт : 448 Кбит/сек
Каналы : 6 каналов
Расположение каналов : Front: L C R, Side: L R, LFE
Частота : 48,0 КГц
Частота кадров : 31,250 кадров/сек (1536 spf)
Метод сжатия : С потерями
Задержка видео : -672 мс.
Размер потока : 60,2 Мбайт (6%)
Аудио #2
Идентификатор : 189 (0xBD)-129 (0x81)
Формат : AC-3
Формат/Информация : Audio Coding 3
Расширение режима : CM (complete main)
Параметр Endianness формата : Big
Режим смешивания : DVD-Video
Продолжительность : 18 м.
Вид битрейта : Постоянный
Битрейт : 448 Кбит/сек
Каналы : 6 каналов
Расположение каналов : Front: L C R, Side: L R, LFE
Частота : 48,0 КГц
Частота кадров : 31,250 кадров/сек (1536 spf)
Метод сжатия : С потерями
Задержка видео : -672 мс.
Размер потока : 60,2 Мбайт (6%)
Меню
Общее
Полное имя : I:\ПЕРЕВЕДЕННЫЕ ФИЛЬМЫ НА DVD\Волшебное дерево Magiczne drzewo (2009) Польша DVD-5\Magiczne drzewo (2009) DVD\VIDEO_TS\VTS_02_4.VOB
Формат : MPEG-PS
Размер файла : 1024 Мбайт
Продолжительность : 18 м.
Режим общего битрейта : Переменный
Общий поток : 7737 Кбит/сек
Видео
Идентификатор : 224 (0xE0)
Формат : MPEG Video
Версия формата : Version 2
Профиль формата : Main@Main
Параметр BVOP формата : Да
Параметр матрицы формата : По умолчанию
Параметр GOP формата : M=3, N=13
Структура изображения : Frame
Продолжительность : 18 м.
Вид битрейта : Переменный
Битрейт : 6687 Кбит/сек
Максимальный битрейт : 8500 Кбит/сек
Ширина : 720 пикселей
Высота : 576 пикселей
Соотношение сторон : 2,40:1
Частота кадров : 25,000 кадров/сек
Стандарт вещания : PAL
Цветовое пространство : YUV
Субдискретизация насыщенности : 4:2:0
Битовая глубина : 8 бит
Тип развёртки : Чересстрочная
Порядок развёртки : Верхнее поле первое
Метод сжатия : С потерями
Бит/(Пиксели*Кадры) : 0.645
Временной код первого кадра : 10:56:45:16
Оригинал временного кода : Group of pictures header
GOP, открыто/закрыто : Открыто
Размер потока : 885 Мбайт (86%)
Основные цвета : BT.601 PAL
Характеристики трансфера : BT.470 System B, BT.470 System G
Коэффициенты матрицы : BT.601
Аудио #1
Идентификатор : 189 (0xBD)-128 (0x80)
Формат : AC-3
Формат/Информация : Audio Coding 3
Расширение режима : CM (complete main)
Параметр Endianness формата : Big
Режим смешивания : DVD-Video
Продолжительность : 18 м.
Вид битрейта : Постоянный
Битрейт : 448 Кбит/сек
Каналы : 6 каналов
Расположение каналов : Front: L C R, Side: L R, LFE
Частота : 48,0 КГц
Частота кадров : 31,250 кадров/сек (1536 spf)
Метод сжатия : С потерями
Задержка видео : -568 мс.
Размер потока : 59,3 Мбайт (6%)
Аудио #2
Идентификатор : 189 (0xBD)-129 (0x81)
Формат : AC-3
Формат/Информация : Audio Coding 3
Расширение режима : CM (complete main)
Параметр Endianness формата : Big
Режим смешивания : DVD-Video
Продолжительность : 18 м.
Вид битрейта : Постоянный
Битрейт : 448 Кбит/сек
Каналы : 6 каналов
Расположение каналов : Front: L C R, Side: L R, LFE
Частота : 48,0 КГц
Частота кадров : 31,250 кадров/сек (1536 spf)
Метод сжатия : С потерями
Задержка видео : -568 мс.
Размер потока : 59,3 Мбайт (6%)
Меню
Общее
Полное имя : I:\ПЕРЕВЕДЕННЫЕ ФИЛЬМЫ НА DVD\Волшебное дерево Magiczne drzewo (2009) Польша DVD-5\Magiczne drzewo (2009) DVD\VIDEO_TS\VTS_02_5.VOB
Формат : MPEG-PS
Размер файла : 485 Мбайт
Продолжительность : 7 м. 50 с.
Режим общего битрейта : Переменный
Общий поток : 8647 Кбит/сек
Видео
Идентификатор : 224 (0xE0)
Формат : MPEG Video
Версия формата : Version 2
Профиль формата : Main@Main
Параметр BVOP формата : Да
Параметр матрицы формата : По умолчанию
Параметр GOP формата : M=3, N=13
Структура изображения : Frame
Продолжительность : 7 м. 50 с.
Вид битрейта : Переменный
Битрейт : 7579 Кбит/сек
Максимальный битрейт : 8500 Кбит/сек
Ширина : 720 пикселей
Высота : 576 пикселей
Соотношение сторон : 2,40:1
Частота кадров : 25,000 кадров/сек
Стандарт вещания : PAL
Цветовое пространство : YUV
Субдискретизация насыщенности : 4:2:0
Битовая глубина : 8 бит
Тип развёртки : Чересстрочная
Порядок развёртки : Верхнее поле первое
Метод сжатия : С потерями
Бит/(Пиксели*Кадры) : 0.731
Временной код первого кадра : 11:15:15:21
Оригинал временного кода : Group of pictures header
GOP, открыто/закрыто : Открыто
Размер потока : 425 Мбайт (88%)
Основные цвета : BT.601 PAL
Характеристики трансфера : BT.470 System B, BT.470 System G
Коэффициенты матрицы : BT.601
Аудио #1
Идентификатор : 189 (0xBD)-128 (0x80)
Формат : AC-3
Формат/Информация : Audio Coding 3
Расширение режима : CM (complete main)
Параметр Endianness формата : Big
Режим смешивания : DVD-Video
Продолжительность : 7 м. 49 с.
Вид битрейта : Постоянный
Битрейт : 448 Кбит/сек
Каналы : 6 каналов
Расположение каналов : Front: L C R, Side: L R, LFE
Частота : 48,0 КГц
Частота кадров : 31,250 кадров/сек (1536 spf)
Метод сжатия : С потерями
Задержка видео : -528 мс.
Размер потока : 25,1 Мбайт (5%)
Аудио #2
Идентификатор : 189 (0xBD)-129 (0x81)
Формат : AC-3
Формат/Информация : Audio Coding 3
Расширение режима : CM (complete main)
Параметр Endianness формата : Big
Режим смешивания : DVD-Video
Продолжительность : 7 м. 49 с.
Вид битрейта : Постоянный
Битрейт : 448 Кбит/сек
Каналы : 6 каналов
Расположение каналов : Front: L C R, Side: L R, LFE
Частота : 48,0 КГц
Частота кадров : 31,250 кадров/сек (1536 spf)
Метод сжатия : С потерями
Задержка видео : -528 мс.
Размер потока : 25,1 Мбайт (5%)
Меню
Общее
Полное имя : I:\ПЕРЕВЕДЕННЫЕ ФИЛЬМЫ НА DVD\Волшебное дерево Magiczne drzewo (2009) Польша DVD-5\[kat.cr]magiczne.drzewo.the.magic.tree.2009.dvd5.pal.pol.torrent
Размер файла : 22,2 Кбайт
Title: Magiczne drzewo (2009) DVD
Size: 4.63 Gb ( 4 850 748,00 KBytes ) - DVD-9
Enabled regions: 1, 2, 3, 4, 5, 6, 7, 8
VTS_01 :
Play Length: 00:00:00
Video: PAL 16:9 (720x576) VBR, Auto Letterboxed
VTS_02 :
Play Length: 01:23:36+{01:23:36}
Video: PAL 16:9 (720x576) VBR, Auto Letterboxed
Audio:
Russian (Dolby AC3, 6 ch)
Polish (Dolby AC3, 6 ch)
* Menus Information *
VIDEO_TS Menu
Video:
NTSC 4:3 (720x480) VBR
Auto Pan&Scan, Auto Letterboxed
English Language Unit :
Title Menu
VTS_01 Menu
Video:
PAL 16:9 (720x576) VBR
Auto Letterboxed
Audio:
Not specified (Dolby AC3, 2 ch)
English Language Unit :
Root Menu
VTS_02 Menu
Video:
NTSC 4:3 (720x480) VBR
Auto Pan&Scan, Auto Letterboxed
English Language Unit :
Root Menu
Chapter (PTT) Menu

Скриншоты меню



_________________
Показать сообщения:    

Текущее время: Сегодня 23:12

Часовой пояс: GMT



Вы не можете начинать темы
Вы не можете отвечать на сообщения
Вы не можете редактировать свои сообщения
Вы не можете удалять свои сообщения
Вы не можете голосовать в опросах
Вы не можете прикреплять файлы к сообщениям
Вы не можете скачивать файлы
Наши партнеры: интернет магазин Ивановского трикотажа textilla.ru