Ивановский Торрент трекер
Яндекс.Погода
 

[Цитировать]
HUNTER

16.01.15 раздача обновлена, звук синхронизирован заново, оригинальная дорожка заменена дорожкой с DVD.-Волшебник / The Wizard
Страна: США
Жанр: драма, комедия, приключения, семейный
Год выпуска: 1989
Продолжительность: 01:39:52
Перевод: Профессиональный (двухголосый закадровый) Ульпаней Эльром
Cубтитры: английские
Оригинальная аудиодорожка: английский
Режиссер: Тодд Холлэнд / Todd Holland
В ролях: Люк Эдвардс, Фред Сэвэдж, Уэнди Филлипс, Винс Транкина, Дея МакАллистер, Сэм МакМюррей, Бо Бриджес, Кристиан Слэйтер, Уилл Зельцер, Рой Конрад...
Описание: Кори Вудс и его младший брат-аутист Джимми, из-за разлада в семье сбегают из дома и отправляются в большое путешествие через пол страны в Калифорнию. По пути они встречают девчонку-сорванца Холи и узнают о невероятных игровых способностях Джимми! Тут же возникает идея - отправиться на турнир Video Armageddon, национальный чемпионат по видеоиграм. А тем временем за беглецами организована погоня...
Доп. информация: Исходником звука послужила раздача от Dexser.
Сэмпл: http://multi-up.com/1026985
Тип релиза: HDTVRip 720p
Контейнер: MKV
Видео: 1280x718 (16:9), 23.976 fps, AVC, ~2630 Kbps, 0.119 bits/pixel
Аудио 1: Russian, 48.0 KHz, AC3, 2 ch, 192 Kbps - Ульпаней Эльром
Аудио 2: English, 48.0 KHz, AC3, 2 ch, 192 Kbps
Формат субтитров: softsub (SRT)

MediaInfo

General
Unique ID : 240883315994838427401104175131775913574 (0xB538706B554EFAB8900CC3431A72CE66)
Complete name : D:\The Wizard.mkv
Format : Matroska
Format version : Version 4 / Version 2
File size : 2.10 GiB
Duration : 1h 39mn
Overall bit rate : 3 015 Kbps
Encoded date : UTC 2015-01-16 17:32:49
Writing application : mkvmerge v7.5.0 ('Glass Culture') 64bit built on Jan 4 2015 16:48:44
Writing library : libebml v1.3.1 + libmatroska v1.4.2
DURATION : 01:39:51.872000000
NUMBER_OF_FRAMES : 187246
NUMBER_OF_BYTES : 143804928
_STATISTICS_WRITING_APP : mkvmerge v7.5.0 ('Glass Culture') 64bit built on Jan 4 2015 16:48:44
_STATISTICS_WRITING_DATE_UT : 2015-01-16 17:32:49
_STATISTICS_TAGS : BPS DURATION NUMBER_OF_FRAMES NUMBER_OF_BYTES
Video
ID : 1
Format : AVC
Format/Info : Advanced Video Codec
Format profile : High@L4.1
Format settings, CABAC : Yes
Format settings, ReFrames : 8 frames
Codec ID : V_MPEG4/ISO/AVC
Duration : 1h 39mn
Bit rate : 2 630 Kbps
Width : 1 280 pixels
Height : 718 pixels
Display aspect ratio : 16:9
Frame rate mode : Constant
Frame rate : 23.976 fps
Color space : YUV
Chroma subsampling : 4:2:0
Bit depth : 8 bits
Scan type : Progressive
Bits/(Pixel*Frame) : 0.119
Stream size : 1.79 GiB (85%)
Writing library : x264 core 122 r2183 c522ad1
Encoding settings : cabac=1 / ref=9 / deblock=1:-3:-3 / analyse=0x3:0x113 / me=umh / subme=10 / psy=1 / psy_rd=1.00:0.00 / mixed_ref=1 / me_range=16 / chroma_me=1 / trellis=2 / 8x8dct=1 / cqm=0 / deadzone=21,11 / fast_pskip=1 / chroma_qp_offset=-2 / threads=12 / sliced_threads=0 / nr=0 / decimate=1 / interlaced=0 / bluray_compat=0 / constrained_intra=0 / bframes=3 / b_pyramid=1 / b_adapt=1 / b_bias=0 / direct=1 / weightb=1 / open_gop=0 / weightp=2 / keyint=250 / keyint_min=23 / scenecut=40 / intra_refresh=0 / rc=2pass / mbtree=0 / bitrate=2630 / ratetol=1.0 / qcomp=0.60 / qpmin=0 / qpmax=69 / qpstep=4 / cplxblur=20.0 / qblur=0.5 / ip_ratio=1.40 / pb_ratio=1.30 / aq=1:0.80
Language : English
Default : Yes
Forced : No
Audio #1
ID : 2
Format : AC-3
Format/Info : Audio Coding 3
Mode extension : CM (complete main)
Format settings, Endianness : Big
Codec ID : A_AC3
Duration : 1h 39mn
Bit rate mode : Constant
Bit rate : 192 Kbps
Channel(s) : 2 channels
Channel positions : Front: L R
Sampling rate : 48.0 KHz
Bit depth : 16 bits
Compression mode : Lossy
Stream size : 137 MiB (6%)
Title : Ульпаней Эльром
Language : Russian
Default : Yes
Forced : No
Audio #2
ID : 3
Format : AC-3
Format/Info : Audio Coding 3
Format profile : Dolby Digital
Mode extension : CM (complete main)
Format settings, Endianness : Big
Codec ID : A_AC3
Duration : 1h 39mn
Bit rate mode : Constant
Bit rate : 192 Kbps
Channel(s) : 2 channels
Channel positions : Front: L R
Sampling rate : 48.0 KHz
Bit depth : 16 bits
Compression mode : Lossy
Stream size : 137 MiB (6%)
Language : English
Default : No
Forced : No
Text
ID : 4
Format : UTF-8
Codec ID : S_TEXT/UTF8
Codec ID/Info : UTF-8 Plain Text
Language : English
Default : No
Forced : No

Скриншоты

Показать сообщения:    

Текущее время: 21-Окт 11:21

Часовой пояс: UTC - 1


Вы не можете начинать темы
Вы не можете отвечать на сообщения
Вы не можете редактировать свои сообщения
Вы не можете удалять свои сообщения
Вы не можете голосовать в опросах
Вы не можете прикреплять файлы к сообщениям
Вы не можете скачивать файлы

!ВНИМАНИЕ!
Сайт не предоставляет электронные версии произведений, а занимается лишь коллекционированием и каталогизацией ссылок, присылаемых и публикуемых на форуме нашими читателями. Если вы являетесь правообладателем какого-либо представленного материала и не желаете, чтобы ссылка на него находилась в нашем каталоге, свяжитесь с нами, и мы незамедлительно удалим ее. Файлы для обмена на трекере предоставлены пользователями сайта, и администрация не несет ответственности за их содержание. Просьба не заливать файлы, защищенные авторскими правами, а также файлы нелегального содержания!