Важное объявление!
У Нас Все раздачи мультитрекерные, при нуле пиров в релизах, можете смело вставать на закачку!
 
Автор Сообщение

HUNTER

Стаж:
4 года 10 месяцев
Сообщений:
65561

Репутация: 101

[+] [-]
Вне форума [Профиль] [ЛС]

Волшебник страны Оз / The Wizard of Oz-
Год выпуска: 1939
Выпущено: США
Жанр: мюзикл, фэнтези, приключения, семейный
Продолжительность: 01:41:45
Перевод: Профессиональный (полное дублирование) CEE
+ Профессиональный (многоголосый, закадровый) DVD-Магия
+ Авторский одноголосый С.Кузнецов
Оригинальная звуковая дорожка: English
Субтитры: Russian, English, English (SDH)-Режиссер: Виктор Флеминг / Victor Fleming, Джордж Кьюкор / George Cukor
В ролях: Джуди Гарлэнд, Фрэнк Морган, Рэй Болджер, Берт Лар, Джек Хейли, Билли Бурк, Маргарет Хэмилтон, Чарли Грейпвин, Pat Walshe, Clara Blandick, Терри, Глэдис В. Эллисон, Josefine Balluck, John T. Bambury, Виола Бэнкс, Чарльз Бекер, Фреда Бески, Henry Boers, Theodore Boers, Christie Buresh, Eddie Buresh
О фильме: Усаживайтесь поудобнее и приготовьтесь отправиться в долгое путешествие. Поднявшись выше радуги, вы окажетесь на дороге из желтого кирпича. Дорога проведет вас через заколдованные леса, царства злых ведьм и добрых фей в Изумрудный Город в далекой стране Оз. В мир, где любая мечта становится реальностью...-SbR!
Релиз:
Формат: MKV
Видео: 986x720 at 23.976 fps, x264@L4.1, crf, ~10100 kbps avg
Аудио #1: Russian: 48 kHz, AC3, 3/2 (L,C,R,l,r) + LFE ch, ~640 kbps avg |Дубляж, Blu-Ray CEE|
Аудио #2: Russian: 48 kHz, AC3, 3/2 (L,C,R,l,r) + LFE ch, ~448 kbps avg |Многоголосый закадровый, DVD-Магия|
Аудио #3: Russian: 48 kHz, AC3, 3/2 (L,C,R,l,r) + LFE ch, ~448 kbps avg |Одногоголосый закадровый, С.Кузнецов|
Аудио #4: Ukrainian: 48 kHz, DTS, 3/2 (L,C,R,l,r) + LFE ch, ~1509.00 kbps avg |Многоголосый закадровый, Омікрон|
Аудио #5: English: 48 kHz, DTS, 3/2 (L,C,R,l,r) + LFE ch, ~1509 kbps avg
Аудио #6: English: 48 kHz, AC3, 2/0 (L,R) ch, ~192.00 kbps avg |Commentary|
Аудио #7: English: 48 kHz, AC3, 1 (C) ch, ~192.00 kbps avg |Music and Effects Track|
Аудио #8: English: 48 kHz, AC3, 1 (C) ch, ~192.00 kbps avg |Original Mono Track|
Семпл-
-

mInfo

Формат : Matroska
Версия формата : Version 2
Размер файла : 11,0 Гбайт
Продолжительность : 1 ч. 41 м.
Общий поток : 15,4 Мбит/сек
Название фильма : The Wizard of Oz (1939) - Release for HDCLUB
Дата кодирования : UTC 2014-10-05 23:01:28
Программа кодирования : mkvmerge v5.7.0 ('The Whirlwind') built on Jul 8 2012 20:08:51
Библиотека кодирования : libebml v1.2.3 + libmatroska v1.3.0
Видео
Идентификатор : 1
Формат : AVC
Формат/Информация : Advanced Video Codec
Профиль формата : High@L4.1
Параметр CABAC формата : Да
Параметр ReFrames формата : 11 кадров
Идентификатор кодека : V_MPEG4/ISO/AVC
Продолжительность : 1 ч. 41 м.
Битрейт : 9993 Кбит/сек
Ширина : 986 пикселей
Высота : 720 пикселей
Соотношение сторон : 4:3
Соотношение сторон в оригинале : 1,370
Режим частоты кадров : Постоянный
Частота кадров : 23,976 кадра/сек
Цветовое пространство : YUV
Субдискретизация насыщенности : 4:2:0
Битовая глубина : 8 бит
Тип развёртки : Прогрессивная
Бит/(Пиксели*Кадры) : 0.587
Размер потока : 7,11 Гбайт (65%)
Библиотека кодирования : x264 core 142 r2409+42 04be48a tMod [8-bit@all X86_64]
Настройки программы : cabac=1 / ref=11 / deblock=1:-3:-3 / analyse=0x3:0x133 / me=esa / subme=11 / psy=1 / fade_compensate=0.00 / psy_rd=1.10:0.00 / mixed_ref=1 / me_range=48 / chroma_me=1 / trellis=2 / 8x8dct=1 / cqm=0 / deadzone=21,11 / fast_pskip=0 / chroma_qp_offset=-2 / threads=12 / lookahead_threads=3 / sliced_threads=0 / nr=0 / decimate=0 / interlaced=0 / bluray_compat=0 / constrained_intra=0 / fgo=0 / bframes=16 / b_pyramid=2 / b_adapt=2 / b_bias=0 / direct=3 / weightb=1 / open_gop=0 / weightp=2 / keyint=250 / keyint_min=23 / scenecut=40 / intra_refresh=0 / rc=crf / mbtree=0 / crf=16.8000 / qcomp=0.65 / qpmin=0:0:0 / qpmax=69:69:69 / qpstep=4 / ip_ratio=1.30 / pb_ratio=1.20 / aq=1:0.80 / aq-sensitivity=10.00 / aq-factor=1.00:1.00:1.00 / aq2=1:0.70 / aq2-sensitivity=15.00 / aq2-factor=1.00:1.00:1.00 / aq3=0
Язык : English
Default : Да
Forced : Нет
Аудио #1
Идентификатор : 2
Формат : AC-3
Формат/Информация : Audio Coding 3
Расширение режима : CM (complete main)
Параметр Endianness формата : Big
Идентификатор кодека : A_AC3
Продолжительность : 1 ч. 41 м.
Вид битрейта : Постоянный
Битрейт : 640 Кбит/сек
Каналы : 6 каналов
Расположение каналов : Front: L C R, Side: L R, LFE
Частота : 48,0 КГц
Битовая глубина : 16 бит
Метод сжатия : С потерями
Размер потока : 466 Мбайт (4%)
Заголовок : |Дубляж, Blu-Ray CEE|
Язык : Russian
Default : Да
Forced : Нет
Аудио #2
Идентификатор : 3
Формат : AC-3
Формат/Информация : Audio Coding 3
Расширение режима : CM (complete main)
Параметр Endianness формата : Big
Идентификатор кодека : A_AC3
Продолжительность : 1 ч. 41 м.
Вид битрейта : Постоянный
Битрейт : 448 Кбит/сек
Каналы : 6 каналов
Расположение каналов : Front: L C R, Side: L R, LFE
Частота : 48,0 КГц
Битовая глубина : 16 бит
Метод сжатия : С потерями
Размер потока : 326 Мбайт (3%)
Заголовок : |Многоголосый закадровый, DVD-Магия|
Язык : Russian
Default : Нет
Forced : Нет
Аудио #3
Идентификатор : 4
Формат : AC-3
Формат/Информация : Audio Coding 3
Расширение режима : CM (complete main)
Параметр Endianness формата : Big
Идентификатор кодека : A_AC3
Продолжительность : 1 ч. 41 м.
Вид битрейта : Постоянный
Битрейт : 448 Кбит/сек
Каналы : 6 каналов
Расположение каналов : Front: L C R, Side: L R, LFE
Частота : 48,0 КГц
Битовая глубина : 16 бит
Метод сжатия : С потерями
Размер потока : 326 Мбайт (3%)
Заголовок : |Одногоголосый закадровый, С.Кузнецов|
Язык : Russian
Default : Нет
Forced : Нет
Аудио #4
Идентификатор : 5
Формат : DTS
Формат/Информация : Digital Theater Systems
Режим : 16
Параметр Endianness формата : Big
Идентификатор кодека : A_DTS
Продолжительность : 1 ч. 41 м.
Вид битрейта : Постоянный
Битрейт : 1509 Кбит/сек
Каналы : 6 каналов
Расположение каналов : Front: L C R, Side: L R, LFE
Частота : 48,0 КГц
Битовая глубина : 16 бит
Метод сжатия : С потерями
Размер потока : 1,07 Гбайт (10%)
Заголовок : |Многоголосый закадровый, Омікрон|
Язык : Ukrainian
Default : Нет
Forced : Нет
Аудио #5
Идентификатор : 6
Формат : DTS
Формат/Информация : Digital Theater Systems
Режим : 16
Параметр Endianness формата : Big
Идентификатор кодека : A_DTS
Продолжительность : 1 ч. 41 м.
Вид битрейта : Постоянный
Битрейт : 1509 Кбит/сек
Каналы : 6 каналов
Расположение каналов : Front: L C R, Side: L R, LFE
Частота : 48,0 КГц
Битовая глубина : 24 бит
Метод сжатия : С потерями
Размер потока : 1,07 Гбайт (10%)
Язык : English
Default : Нет
Forced : Нет
Аудио #6
Идентификатор : 7
Формат : AC-3
Формат/Информация : Audio Coding 3
Расширение режима : CM (complete main)
Параметр Endianness формата : Big
Идентификатор кодека : A_AC3
Продолжительность : 1 ч. 41 м.
Вид битрейта : Постоянный
Битрейт : 192 Кбит/сек
Каналы : 2 канала
Расположение каналов : Front: L R
Частота : 48,0 КГц
Битовая глубина : 16 бит
Метод сжатия : С потерями
Размер потока : 140 Мбайт (1%)
Заголовок : Commentary
Язык : English
Default : Нет
Forced : Нет
Аудио #7
Идентификатор : 8
Формат : AC-3
Формат/Информация : Audio Coding 3
Расширение режима : CM (complete main)
Параметр Endianness формата : Big
Идентификатор кодека : A_AC3
Продолжительность : 1 ч. 41 м.
Вид битрейта : Постоянный
Битрейт : 192 Кбит/сек
Каналы : 1 канал
Расположение каналов : Front: C
Частота : 48,0 КГц
Битовая глубина : 16 бит
Метод сжатия : С потерями
Размер потока : 140 Мбайт (1%)
Заголовок : Music and Effects Track
Язык : English
Default : Нет
Forced : Нет
Аудио #8
Идентификатор : 9
Формат : AC-3
Формат/Информация : Audio Coding 3
Расширение режима : CM (complete main)
Параметр Endianness формата : Big
Идентификатор кодека : A_AC3
Продолжительность : 1 ч. 41 м.
Вид битрейта : Постоянный
Битрейт : 192 Кбит/сек
Каналы : 1 канал
Расположение каналов : Front: C
Частота : 48,0 КГц
Битовая глубина : 16 бит
Метод сжатия : С потерями
Размер потока : 140 Мбайт (1%)
Заголовок : Original Mono Track
Язык : English
Default : Нет
Forced : Нет
Текст #1
Идентификатор : 10
Формат : UTF-8
Идентификатор кодека : S_TEXT/UTF8
Идентификатор кодека/Информация : UTF-8 Plain Text
Язык : Russian
Default : Нет
Forced : Нет
Текст #2
Идентификатор : 11
Формат : UTF-8
Идентификатор кодека : S_TEXT/UTF8
Идентификатор кодека/Информация : UTF-8 Plain Text
Язык : English
Default : Нет
Forced : Нет
Текст #3
Идентификатор : 12
Формат : UTF-8
Идентификатор кодека : S_TEXT/UTF8
Идентификатор кодека/Информация : UTF-8 Plain Text
Заголовок : SDH
Язык : English
Default : Нет
Forced : Нет
Текст #4
Идентификатор : 13
Формат : UTF-8
Идентификатор кодека : S_TEXT/UTF8
Идентификатор кодека/Информация : UTF-8 Plain Text
Язык : Romanian
Default : Нет
Forced : Нет
Текст #5
Идентификатор : 14
Формат : UTF-8
Идентификатор кодека : S_TEXT/UTF8
Идентификатор кодека/Информация : UTF-8 Plain Text
Заголовок : Forced
Язык : French
Default : Нет
Forced : Нет
Текст #6
Идентификатор : 15
Формат : UTF-8
Идентификатор кодека : S_TEXT/UTF8
Идентификатор кодека/Информация : UTF-8 Plain Text
Язык : French
Default : Нет
Forced : Нет
Текст #7
Идентификатор : 16
Формат : UTF-8
Идентификатор кодека : S_TEXT/UTF8
Идентификатор кодека/Информация : UTF-8 Plain Text
Язык : German
Default : Нет
Forced : Нет
Текст #8
Идентификатор : 17
Формат : UTF-8
Идентификатор кодека : S_TEXT/UTF8
Идентификатор кодека/Информация : UTF-8 Plain Text
Язык : Italian
Default : Нет
Forced : Нет
Текст #9
Идентификатор : 18
Формат : UTF-8
Идентификатор кодека : S_TEXT/UTF8
Идентификатор кодека/Информация : UTF-8 Plain Text
Заголовок : SDH
Язык : Italian
Default : Нет
Forced : Нет
Меню
00:00:00.000 : en:Main Title
00:01:36.095 : en:Prologue
00:01:56.115 : en:Dorothy's Dilemma
00:05:49.349 : en:Over the Rainbow
00:08:02.440 : en:Miss Gulch
00:10:21.120 : en:Toto Escapes
00:11:02.828 : en:Dorothy Runs Away
00:12:47.766 : en:Crystal Gazing
00:15:06.405 : en:"It's A Twister!"
00:17:01.562 : en:Inside the Cyclone
00:19:26.832 : en:Not in Kansas Anymore
00:22:59.127 : en:Come Out, Come Out
00:23:43.713 : en:It Really Was No Miracle
00:24:52.991 : en:Ding! Dong! the Witch Is Dead!
00:27:35.612 : en:The Lullaby League
00:28:03.681 : en:The Lollipop Guild
00:29:06.745 : en:"Who Killed My Sister?"
00:31:05.905 : en:"What a Smell of Sulfur!"
00:32:43.962 : en:Follow the Yellow Brick Road
00:33:16.995 : en:You're Off to See the Wizard
00:34:04.125 : en:Dorothy Meets the Scarecrow
00:36:35.193 : en:If I Only Had a Brain
00:38:48.826 : en:We're Off to See the Wizard
00:39:16.854 : en:"Apples!"
00:40:29.718 : en:"a Man Made Out of Tin!"
00:42:49.567 : en:If I Only Had a Heart
00:45:55.752 : en:"Wanna Play Ball?"
00:47:00.692 : en:"to Oz? to Oz!"
00:47:56.873 : en:"Lions and Tigers and Bears. Oh My!"
00:49:05.192 : en:Meeting the Cowardly Lion
00:52:09.626 : en:If I Only Had the Nerve
00:52:51.418 : en:We're Off to See the Wizard
00:53:54.230 : en:"Poppies Will Put Them to Sleep!"
00:57:20.437 : en:Optimistic Voices
00:58:23.875 : en:The Emerald City
01:00:34.631 : en:The Merry Old Land of Oz
01:02:14.397 : en:Surrender, Dorothy
01:03:59.335 : en:If I Were the King of the Forest
01:08:46.080 : en:Meeting the Wizard of Oz
01:12:45.361 : en:The Haunted Forest
01:14:31.467 : en:Attack of the Winged Monkeys
01:16:11.566 : en:Dorothy in Captivity
01:17:25.724 : en:Toto's Escape
01:20:39.834 : en:March of the Winkies
01:23:20.245 : en:The Rescue
01:24:51.252 : en:"Seize Them!"
01:25:55.441 : en:"I'm Melting!"
01:26:59.631 : en:"the Wicked Witch Is Dead!"
01:28:23.881 : en:The Wizard Revealed
01:29:23.649 : en:Heroic Rewards
01:33:48.622 : en:The Wizard's Balloon
01:35:51.245 : en:Glinda Returns
01:37:33.430 : en:Dorothy's Farewell
01:38:40.122 : en:"There's No Place Like Home!"
01:41:23.577 : en:Cast List
-

_________________
Показать сообщения:    

Текущее время: Сегодня 04:32

Часовой пояс: GMT



Вы не можете начинать темы
Вы не можете отвечать на сообщения
Вы не можете редактировать свои сообщения
Вы не можете удалять свои сообщения
Вы не можете голосовать в опросах
Вы не можете прикреплять файлы к сообщениям
Вы не можете скачивать файлы