Ивановский Торрент трекер
Яндекс.Погода
 

[Цитировать]
HUNTER

2 Сезон / Серии: 12 (12) -Год производства: 2012 г.
Страна: USA
Жанр: драма, фэнтези
Продолжительность: ~00:45:00
Перевод: Профессиональный многоголосый закадровый-(VO-production + Ancord)
Субтитры: нет-Режиссер: Рассел Малкэй-В ролях: Тайлер Пози (Скот МакКол), Кристал Рид (Элисон Арджент), Дилан О’Брайэн (Стайлс), Колтон Хэйнс (Джексон), Холлэнд Роден (Лидия Мартин), Линден Эшби (шерифф Стилински), Тайлер Хёхлин (Дерек Хейл), ДжейАр Борн (Арджент), Мелисса Понцио (Мелисса МакКол)-Описание: Скотт был просто обычным парнем, пока один укус не изменил его жизнь навсегда. Теперь он изо всех сил пытается понять, кто он и кем он может стать. В нем больше волка чем человека - или всё совсем наоборот? Как бы то ни было, легко не будет. Скотт попытается управлять своими наклонностями, но больше всего он боится, что эти его новые наклонности, в конце концов, начнут управлять им. "Волчонок" - история Скотта, то как он пытается идти по узкой границе между тем, чего он хочет и чего не может не хотеть. Станет ли случившееся с ним благословением? Или это будет проклятие? И как это отразится на его отношениях с Эллисон - девушкой, которую он так любит? Только время покажет, должен ли он принять свои новообретенные способности, или бояться их.
-Качество видео: WEB-DL 720p
Формат видео: mkv
Видео кодек: H.264
Аудио кодек: AC3
Видео: AVC, 1280x720 (16/9), 23.976 fps, 4 011 Kbps (0.182 bit/pixel)
Аудио RUS: AC-3, 48.0 KHz, 2 ch, 192 Kbps, CBR (Russian)
Аудио ENG: AC-3, 48.0 KHz, 6 ch, 384 Kbps, CBR-

MediaInfo

Код: copyText_writeLink('this.parentNode.parentNode.nextSibling.nextSibling');
General
Unique ID : 185285302619384971323406059597151170278 (0x8B64A6B8C68FF6B78E51ADFCF1E16EE6)
Complete name : I:\ЗАКАЧКИ\Teen Wolf S02.(VO-production) WEB-DL (720p)\Voltchonok.(2.sezon.01.seriya.iz.12).2012.x264.WEB-DL.720p.VO-production.mkv
Format : Matroska
File size : 1.37 GiB
Duration : 41mn 56s
Overall bit rate : 4 680 Kbps
Encoded date : UTC 2012-06-23 15:33:54
Writing application : mkvmerge v5.6.0 ('Kenya Kane') built on May 27 2012 16:44:04
Writing library : libebml v1.2.3 + libmatroska v1.3.0
Video
ID : 1
Format : AVC
Format/Info : Advanced Video Codec
Format profile : High@L3.1
Format settings, CABAC : No
Format settings, ReFrames : 2 frames
Muxing mode : Header stripping
Codec ID : V_MPEG4/ISO/AVC
Duration : 41mn 56s
Bit rate : 4 011 Kbps
Width : 1 280 pixels
Height : 720 pixels
Display aspect ratio : 16:9
Frame rate : 23.976 fps
Color space : YUV
Chroma subsampling : 4:2:0
Bit depth : 8 bits
Scan type : Progressive
Bits/(Pixel*Frame) : 0.182
Stream size : 1.17 GiB (86%)
Language : English
Color primaries : BT.709-5, BT.1361, IEC 61966-2-4, SMPTE RP177
Transfer characteristics : BT.709-5, BT.1361
Matrix coefficients : BT.709-5, BT.1361, IEC 61966-2-4 709, SMPTE RP177
Audio #1
ID : 2
Format : AC-3
Format/Info : Audio Coding 3
Mode extension : CM (complete main)
Muxing mode : Header stripping
Codec ID : A_AC3
Duration : 41mn 56s
Bit rate mode : Constant
Bit rate : 192 Kbps
Channel(s) : 2 channels
Channel positions : Front: L R
Sampling rate : 48.0 KHz
Bit depth : 16 bits
Compression mode : Lossy
Delay relative to video : 2s 324ms
Stream size : 57.6 MiB (4%)
Language : Russian
Audio #2
ID : 3
Format : AC-3
Format/Info : Audio Coding 3
Mode extension : CM (complete main)
Muxing mode : Header stripping
Codec ID : A_AC3
Duration : 41mn 56s
Bit rate mode : Constant
Bit rate : 384 Kbps
Channel(s) : 6 channels
Channel positions : Front: L C R, Side: L R, LFE
Sampling rate : 48.0 KHz
Bit depth : 16 bits
Compression mode : Lossy
Stream size : 115 MiB (8%)
Language : English

Скриншоты

Внимание! Раздача ведётся путём добавления новых серий


Внимание! Раздача ведётся путём добавления новых серий; при каждом добавлении создаётся новый торрент. Чтобы начать докачку новой серии, пользователям необходимо сделать следующее:
1. Удалить старый торрент у себя из клиента (старые серии удалять не надо)
2. Cкачать новый торрент и запустить его у себя в клиенте вместо старого, при этом указать клиенту путь в старую папку куда и должно происходить скачивание новых серий.
Ваш клиент при этом должен произвести хеширование (проверку) старой папки (если не производит сам - помогите ему сделать это), и будет докачивать только те серии которых у вас ещё нет. Старые серии при этом не удаляются, а продолжают раздаваться!
Если вы уже удалили старые серии, то предотвратить повторную закачку старых серий можно, сняв галочку на соответствующих сериях при запуске нового торрента. По возможности, желательно не удалять старые серии как можно дольше оставаться на раздаче, ведь вам идёт это в плюс.
Показать сообщения:    

Текущее время: 20-Окт 18:39

Часовой пояс: UTC - 1


Вы не можете начинать темы
Вы не можете отвечать на сообщения
Вы не можете редактировать свои сообщения
Вы не можете удалять свои сообщения
Вы не можете голосовать в опросах
Вы не можете прикреплять файлы к сообщениям
Вы не можете скачивать файлы

!ВНИМАНИЕ!
Сайт не предоставляет электронные версии произведений, а занимается лишь коллекционированием и каталогизацией ссылок, присылаемых и публикуемых на форуме нашими читателями. Если вы являетесь правообладателем какого-либо представленного материала и не желаете, чтобы ссылка на него находилась в нашем каталоге, свяжитесь с нами, и мы незамедлительно удалим ее. Файлы для обмена на трекере предоставлены пользователями сайта, и администрация не несет ответственности за их содержание. Просьба не заливать файлы, защищенные авторскими правами, а также файлы нелегального содержания!