Война невест / Bride Wars (Гари Виник / Gary Winick) [2009, США, мелодрама, комедия, BDRip 720p] Dub + Sub Rus, Eng + Original Eng :: Ивановский Торрент трекер
Важное объявление!
У Нас Все раздачи мультитрекерные, при нуле пиров в релизах, можете смело вставать на закачку!
Статистика раздачи
Размер:     |    Зарегистрирован:     |    Скачан:     |   
Нет
 
     
 
 
Автор Сообщение

HUNTER

Стаж:
4 года 11 месяцев
Сообщений:
66112

Репутация: 101

[+] [-]
Вне форума [Профиль] [ЛС]

Война невест / Bride Wars
Страна: США
Жанр: мелодрама, комедия
Год выпуска: 2009
Продолжительность: 01:28:57
Перевод: Профессиональный (дублированный)
Cубтитры: русские, английские
Оригинальная аудиодорожка: английский
Режиссер: Гари Виник / Gary Winick
В ролях: Кейт Хадсон, Энн Хэтэуэй, Брайан Гринберг, Крис Прэтт, Стив Хоуи, Кэндис Берген, Кристен Джонстон, Майкл Арден, Виктор Слезак, Келли Коффилд
Описание: Конец дружбе Эммы и Лив кладут их свадьбы, намеченные на один и тот же день. Никто не хочет уступать товарке, и погулять сначала у нее, а потом закатить пир самой. Девушки начинают отчаянную конкуренцию за место проведения торжества, гостей и предоставляемые услуги, не желая ни в чем уступать сопернице…
Кинопоиск|Imdb|Сэмпл
Тип релиза: BDRip 720p
Контейнер: MKV
Видео: MPEG4 Video (H264) 1280x692 (246:133) 23.976fps 6 500 Kbps
Аудио: Русский DTS / 6 ch / 48.0 KHz / 755 Kbps
Аудио 2: Английский DTS / 6 ch / 48.0 KHz / 1 509 Kbps
Формат субтитров: softsub (SRT)

MediaInfo

General
Unique ID : 200246163218276310404304534277725603558 (0x96A60219559F5BAA98EA0DC18953C6E6)
Complete name : D:\Bride.Wars.2009.BDRip.720p.2Audio.DTS.x264.mkv
Format : Matroska
Format version : Version 4 / Version 2
File size : 5.44 GiB
Duration : 1h 28mn
Overall bit rate : 8 749 Kbps
Encoded date : UTC 2014-11-21 05:56:27
Writing application : mkvmerge v6.9.1 ('Blue Panther') 64bit built on Apr 18 2014 18:23:38
Writing library : libebml v1.3.0 + libmatroska v1.4.1
Video
ID : 1
Format : AVC
Format/Info : Advanced Video Codec
Format profile : High@L4.1
Format settings, CABAC : Yes
Format settings, ReFrames : 9 frames
Codec ID : V_MPEG4/ISO/AVC
Duration : 1h 28mn
Bit rate : 6 500 Kbps
Width : 1 280 pixels
Height : 692 pixels
Display aspect ratio : 1.85:1
Frame rate mode : Constant
Frame rate : 23.976 fps
Color space : YUV
Chroma subsampling : 4:2:0
Bit depth : 8 bits
Scan type : Progressive
Bits/(Pixel*Frame) : 0.306
Stream size : 3.92 GiB (72%)
Title : MPEG-4AVC@High Profile L4.1, 24/1.001 fps @ 6500 kbps
Writing library : x264 core 138 r2358 9e941d1
Encoding settings : cabac=1 / ref=9 / deblock=1:-3:-3 / analyse=0x3:0x133 / me=umh / subme=11 / psy=1 / psy_rd=1.00:0.00 / mixed_ref=1 / me_range=32 / chroma_me=1 / trellis=2 / 8x8dct=1 / cqm=0 / deadzone=21,11 / fast_pskip=0 / chroma_qp_offset=-2 / threads=24 / lookahead_threads=2 / sliced_threads=0 / nr=0 / decimate=0 / interlaced=0 / bluray_compat=0 / constrained_intra=0 / bframes=6 / b_pyramid=2 / b_adapt=2 / b_bias=0 / direct=3 / weightb=1 / open_gop=0 / weightp=2 / keyint=240 / keyint_min=23 / scenecut=40 / intra_refresh=0 / rc_lookahead=60 / rc=2pass / mbtree=1 / bitrate=6500 / ratetol=1.0 / qcomp=0.60 / qpmin=0 / qpmax=69 / qpstep=4 / cplxblur=20.0 / qblur=0.5 / vbv_maxrate=22000 / vbv_bufsize=22000 / nal_hrd=none / ip_ratio=1.40 / aq=1:0.60
Language : English
Default : Yes
Forced : No
Audio #1
ID : 2
Format : DTS
Format/Info : Digital Theater Systems
Mode : 16
Format settings, Endianness : Big
Codec ID : A_DTS
Duration : 1h 28mn
Bit rate mode : Constant
Bit rate : 755 Kbps
Channel count : 6 channels
Channel positions : Front: L C R, Side: L R, LFE
Sampling rate : 48.0 KHz
Bit depth : 24 bits
Compression mode : Lossy
Stream size : 480 MiB (9%)
Title : Дубляж
Language : Russian
Default : Yes
Forced : No
Audio #2
ID : 3
Format : DTS
Format/Info : Digital Theater Systems
Mode : 16
Format settings, Endianness : Big
Codec ID : A_DTS
Duration : 1h 28mn
Bit rate mode : Constant
Bit rate : 1 509 Kbps
Channel count : 6 channels
Channel positions : Front: L C R, Side: L R, LFE
Sampling rate : 48.0 KHz
Bit depth : 24 bits
Compression mode : Lossy
Stream size : 960 MiB (17%)
Title : English DTS-HD Core 5.1 @ 1509 kbps
Language : English
Default : No
Forced : No
Text #1
ID : 4
Format : UTF-8
Codec ID : S_TEXT/UTF8
Codec ID/Info : UTF-8 Plain Text
Language : Russian
Default : No
Forced : No
Text #2
ID : 5
Format : UTF-8
Codec ID : S_TEXT/UTF8
Codec ID/Info : UTF-8 Plain Text
Language : English
Default : No
Forced : No
Menu
00:00:00.000 : en:00:00:00.000
00:01:59.202 : en:00:01:59.202
00:05:51.476 : en:00:05:51.476
00:08:21.126 : en:00:08:21.126
00:12:44.973 : en:00:12:44.973
00:15:15.915 : en:00:15:15.915
00:18:15.219 : en:00:18:15.219
00:21:57.775 : en:00:21:57.775
00:23:49.219 : en:00:23:49.219
00:25:07.089 : en:00:25:07.089
00:29:11.375 : en:00:29:11.375
00:32:31.700 : en:00:32:31.700
00:36:02.202 : en:00:36:02.202
00:38:41.986 : en:00:38:41.986
00:42:50.943 : en:00:42:50.943
00:45:20.968 : en:00:45:20.968
00:48:32.326 : en:00:48:32.326
00:51:42.683 : en:00:51:42.683
00:55:52.516 : en:00:55:52.516
00:58:02.854 : en:00:58:02.854
01:03:44.821 : en:01:03:44.821
01:06:27.692 : en:01:06:27.692
01:12:43.276 : en:01:12:43.276
01:14:11.113 : en:01:14:11.113
01:16:47.394 : en:01:16:47.394
01:18:53.395 : en:01:18:53.395
01:21:37.351 : en:01:21:37.351
01:23:30.172 : en:01:23:30.172

Скриншоты

Сравнение
Рип Kirilllll - Рип Floreliya



_________________
Показать сообщения:    

Текущее время: Сегодня 04:02

Часовой пояс: GMT



Вы не можете начинать темы
Вы не можете отвечать на сообщения
Вы не можете редактировать свои сообщения
Вы не можете удалять свои сообщения
Вы не можете голосовать в опросах
Вы не можете прикреплять файлы к сообщениям
Вы не можете скачивать файлы