Важное объявление!
У Нас Все раздачи мультитрекерные, при нуле пиров в релизах, можете смело вставать на закачку!
Статистика раздачи
Размер:     |    Зарегистрирован:     |    Скачан:     |   
Нет
 
     
 
 
Автор Сообщение

HUNTER

Стаж:
5 лет 1 месяц
Сообщений:
68439

Репутация: 101

[+] [-]
Вне форума [Профиль] [ЛС]

Возвращение Фрэнка Джеймса (Месть Джесси Джеймса) / The Return of Frank James-
Год выпуска: 1940
Страна: США
Жанр: вестерн
Продолжительность: 01:32:45
Перевод: Профессиональный (многоголосый закадровый) Светла
Оригинальная аудиодорожка: Английская
Cубтитры: Английские (полные, для слабослышащих)-Режиссер: Фриц Ланг / Fritz Lang
В ролях: Генри Фонда, Джин Тирни, Джекки Купер, Генри Халл, Джон Кэрредин, Дональд Мик, Эдди Коллинз, Джордж Барбье, Расселл Хикс-Описание:
Продолжение фильма "Джесси Джеймс. Герой вне времени", снятого по реальным событиям, произошедшим во второй половине девятнадцатого века в США. Прошел год с того самого дня, когда Джесси Джеймс, легендарный бандит Дикого Запада, был убит выстрелом в спину одним из трех трусливых братьев Форд. Вскоре братьев арестовали. Им было предъявлено обвинение в намеренном убийстве, но коррумпированный судья оправдал преступников, выпустил их на свободу ...-За дорожку спасибо bums9.
| IMDb | Сэмпл-Качество: WEB-DL 720p
Контейнер: MKV
Видео: AVC, 958x720 (1.33:1), 23.976 fps, 4071 kbps
Аудио 1: Русский AC3, 2.0, 48 kHz, 192 kbps
Аудио 2: Английский AC3, 2.0, 48 kHz, 192 kbps
Аудио 3: Английский AAC, 2.0, 48 kHz, 121 kbps
Формат субтитров: softsub (SRT)
СкриншотыMI
General
Unique ID : 235891475716869570399048618638924786669 (0xB1770BB1163DD3059F730517B8AF2BED)
Complete name : The.Return.of.Frank.James.1940.720p.WEB-DL.H.264.mkv
Format : Matroska
Format version : Version 2
File size : 2.97 GiB
Duration : 1h 32mn
Overall bit rate : 4 579 Kbps
Movie name : The Return of Frank James / Возвращение Фрэнка Джеймса (1940) – RuTracker
Encoded date : UTC 2014-06-04 19:42:12
Writing application : mkvmerge v6.1.0 ('Old Devil') built on Mar 2 2013 14:32:37
Writing library : libebml v1.3.0 + libmatroska v1.4.0
Attachment : Yes
Video
ID : 1
Format : AVC
Format/Info : Advanced Video Codec
Format profile : Main@L3.1
Format settings, CABAC : No
Format settings, ReFrames : 2 frames
Codec ID : V_MPEG4/ISO/AVC
Duration : 1h 32mn
Width : 958 pixels
Height : 720 pixels
Display aspect ratio : 4:3
Frame rate mode : Constant
Frame rate : 23.976 fps
Color space : YUV
Chroma subsampling : 4:2:0
Bit depth : 8 bits
Scan type : Progressive
Language : English
Default : Yes
Forced : No
Color primaries : BT.709
Transfer characteristics : BT.709
Matrix coefficients : BT.709
Audio #1
ID : 2
Format : AC-3
Format/Info : Audio Coding 3
Mode extension : CM (complete main)
Format settings, Endianness : Big
Codec ID : A_AC3
Duration : 1h 32mn
Bit rate mode : Constant
Bit rate : 192 Kbps
Channel(s) : 2 channels
Channel positions : Front: L R
Sampling rate : 48.0 KHz
Bit depth : 16 bits
Compression mode : Lossy
Stream size : 127 MiB (4%)
Title : MVO – Светла
Language : Russian
Default : Yes
Forced : No
Audio #2
ID : 3
Format : AC-3
Format/Info : Audio Coding 3
Mode extension : CM (complete main)
Format settings, Endianness : Big
Codec ID : A_AC3
Duration : 1h 32mn
Bit rate mode : Constant
Bit rate : 192 Kbps
Channel(s) : 2 channels
Channel positions : Front: L R
Sampling rate : 48.0 KHz
Bit depth : 16 bits
Compression mode : Lossy
Stream size : 127 MiB (4%)
Title : Original (DVD)
Language : English
Default : No
Forced : No
Audio #3
ID : 4
Format : AAC
Format/Info : Advanced Audio Codec
Format profile : LC
Codec ID : A_AAC
Duration : 1h 32mn
Channel(s) : 2 channels
Channel positions : Front: L R
Sampling rate : 48.0 KHz
Compression mode : Lossy
Title : Original (iTunes)
Language : English
Default : No
Forced : No
Text #1
ID : 5
Format : UTF-8
Codec ID : S_TEXT/UTF8
Codec ID/Info : UTF-8 Plain Text
Language : English
Default : No
Forced : No
Text #2
ID : 6
Format : UTF-8
Codec ID : S_TEXT/UTF8
Codec ID/Info : UTF-8 Plain Text
Title : SDH
Language : English
Default : No
Forced : No
Menu
00:00:00.000 : en:Chapter 01
00:01:07.000 : en:Chapter 02
00:02:05.000 : en:Chapter 03
00:04:11.000 : en:Chapter 04
00:06:42.000 : en:Chapter 05
00:11:22.000 : en:Chapter 06
00:13:55.000 : en:Chapter 07
00:16:46.000 : en:Chapter 08
00:24:20.000 : en:Chapter 09
00:25:33.000 : en:Chapter 10
00:34:10.000 : en:Chapter 11
00:42:04.000 : en:Chapter 12
00:45:21.000 : en:Chapter 13
00:48:06.000 : en:Chapter 14
00:53:13.000 : en:Chapter 15
00:55:01.000 : en:Chapter 16
01:02:33.000 : en:Chapter 17
01:07:28.000 : en:Chapter 18
01:21:21.000 : en:Chapter 19
01:30:17.000 : en:Chapter 20

_________________
Показать сообщения:    

Текущее время: Сегодня 16:59

Часовой пояс: GMT



Вы не можете начинать темы
Вы не можете отвечать на сообщения
Вы не можете редактировать свои сообщения
Вы не можете удалять свои сообщения
Вы не можете голосовать в опросах
Вы не можете прикреплять файлы к сообщениям
Вы не можете скачивать файлы