Ивановский Торрент трекер
Яндекс.Погода
 

[Цитировать]
HUNTER

Возвращение - Год выпуска: 2012
Страна: Россия
Жанр: драма, криминал, детектив
Продолжительность: 01:27:59
Перевод: Оригинал-Режиссер: Олег Ларин
Сценарий: Андрей Тумаркин, Антон Зинченко
Продюсер: Инесса Юрченко, Сергей Щеглов, Алексей Рыбин
Оператор: Александр Ваталев
Композитор: Виталий Муканяев
Художник: Михаил Суздалов, Мария Морозова, Ольга Севастьянова
Монтаж: Генрих Кен-В ролях: Кирилл Сафонов (Андрей Томилин), Константин Стрельников (Корчагин), Алексей Нилов (генерал Смирнов), Ян Цапник (Павел Смелянский), Елена Купрашевич (Полина Смирнова), Полина Булычева (Катя), Эльдар Лебедев (Саймон), Андрей Шарков (Кевин Мальмут), Игорь Павлов (генерал Разин), Сергей Ионкин (бармен)
-Описание: В европейском городке сотрудниками местной полиции и ЦРУ арестованы два русских шпиона. Полина Смирнова — привлекательная женщина лет 25-ти, прибыла на конспиративную встречу с российским нелегалом — Андреем Томилиным, но ее неумелые действия привели к провалу. Но она — дочь влиятельного человека, поэтому её провал спускают на тормозах. Томилин же отправлен в отставку. Все, что у него осталось — это небольшая родительская квартира, скромная пенсия и письма от родителей. Неожиданно выяснилось, что некоторые письма были написаны после гибели родителей. Майор из группы сопровождения Катя Ливанова — автор этих писем — рассказала, как жили родители, и намекнула, что у них были проблемы — какой-то банк требовал продать их землю в престижном районе области. Томилину эта история кажется подозрительной и он начинает собственное расследование.-Рейтинг:-Качество: SATRip
Формат: AVI
Видео кодек: XviD
Аудио кодеk: MP3
Видео: 720x400 (1.80:1), 25 fps, XviD MPEG-4 ~2025 kbps avg, 0.28 bit/pixel
Аудио: Аудио #1: 48 kHz, MPEG Layer 3, 2 ch, ~192.00 kbps avg
-

МедиаИнфо

Код: copyText_writeLink('this.parentNode.parentNode.nextSibling.nextSibling'); General
Complete name : Wozvraschenie.2012.SATRip.avi
Format : AVI
Format/Info : Audio Video Interleave
File size : 1.37 GiB
Duration : 1h 27mn
Overall bit rate : 2 224 Kbps
Writing application : VirtualDubMod 1.5.4.1 (build 2178/release)
Writing library : VirtualDubMod build 2178/release
Video
ID : 0
Format : MPEG-4 Visual
Format profile : Advanced Simple@L5
Format settings, BVOP : Yes
Format settings, QPel : No
Format settings, GMC : No warppoints
Format settings, Matrix : Custom
Codec ID : XVID
Codec ID/Hint : XviD
Duration : 1h 27mn
Bit rate : 2 025 Kbps
Width : 720 pixels
Height : 400 pixels
Display aspect ratio : 16:9
Frame rate : 25.000 fps
Color space : YUV
Chroma subsampling : 4:2:0
Bit depth : 8 bits
Scan type : Progressive
Bits/(Pixel*Frame) : 0.281
Stream size : 1.24 GiB (91%)
Writing library : XviD 64
Audio
ID : 1
Format : MPEG Audio
Format version : Version 1
Format profile : Layer 3
Mode : Joint stereo
Mode extension : MS Stereo
Codec ID : 55
Codec ID/Hint : MP3
Duration : 1h 27mn
Bit rate mode : Constant
Bit rate : 192 Kbps
Channel(s) : 2 channels
Sampling rate : 48.0 KHz
Stream size : 121 MiB (9%)
Alignment : Aligned on interleaves
Interleave, duration : 80 ms (2.00 video frames)
Interleave, preload duration : 504 ms
Writing library : LAME3.97
Encoding settings : -m j -V 4 -q 2 -lowpass 18.6 -b 192
-
- -
Показать сообщения:    

Текущее время: 22-Сен 03:21

Часовой пояс: UTC - 1


Вы не можете начинать темы
Вы не можете отвечать на сообщения
Вы не можете редактировать свои сообщения
Вы не можете удалять свои сообщения
Вы не можете голосовать в опросах
Вы не можете прикреплять файлы к сообщениям
Вы не можете скачивать файлы

!ВНИМАНИЕ!
Сайт не предоставляет электронные версии произведений, а занимается лишь коллекционированием и каталогизацией ссылок, присылаемых и публикуемых на форуме нашими читателями. Если вы являетесь правообладателем какого-либо представленного материала и не желаете, чтобы ссылка на него находилась в нашем каталоге, свяжитесь с нами, и мы незамедлительно удалим ее. Файлы для обмена на трекере предоставлены пользователями сайта, и администрация не несет ответственности за их содержание. Просьба не заливать файлы, защищенные авторскими правами, а также файлы нелегального содержания!