Важное объявление!
У Нас Все раздачи мультитрекерные, при нуле пиров в релизах, можете смело вставать на закачку!
 
Автор Сообщение

HUNTER

Стаж:
4 года 8 месяцев
Сообщений:
62091

Репутация: 101

[+] [-]
Вне форума [Профиль] [ЛС]

Возвращение домой / Coming Home-
Страна: США
Студия: Jerome Hellman Productions, Jayne Productions Inc. | United Artists
Жанр: драма, мелодрама, военный
Год выпуска: 1978
Продолжительность: 02:07:56-Перевод 1: Профессиональный (двухголосый закадровый) НТВ+ | Елена Борзунова, Павел Кипнис
Перевод 2: Профессиональный (многоголосый закадровый) Петербург - Пятый канал
Cубтитры: Русские, English
Оригинальная аудиодорожка: английский-Режиссер: Хэл Эшби / Hal Ashby
В ролях: Джейн Фонда, Джон Войт, Брюс Дерн, Пенелопа Милфорд, Роберт Кэрредин, Роберт Гинти, Мэри Грегори, Кэтлин Миллер, Бисон Кэрролл, Уилли Тайлер...- | Релиз: -Описание: Салли Хайд сильно нуждается в средствах. Её муж Боб на войне во Вьетнаме. Она устраивается санитаркой в военный госпиталь, где работает её подруга Виолет. Там она встречает старого друга, Люка Мартина. Люк вернулся из Вьетнама парализованным. Между ними вспыхивает страсть. После того, как совершает самоубийство брат Виолет, еще один ветеран, вернувшийся с войны с помутившимся рассудком, все помыслы Люка направлены на то, чтобы остановить бессмысленную бойню.-
Оскар, 1979 год
- Лучшая мужская роль (Джон Войт)
- Лучшая женская роль (Джейн Фонда)
- Лучший сценарий
Номинации:
- Лучший фильм
- Лучшая мужская роль второго плана (Брюс Дерн)
- Лучшая женская роль второго плана (Пенелопа Милфорд)
- Лучший режиссер (Хэл Эшби)
- Лучший монтаж
-Доп. информация:
- Исходная дорожка "НТВ+" записана мною с телеканала MGM HD;
- За исходную дорожку с переводом "Пятого канала" спасибо problesk;
- Работа со звуком - xfiles.
-Семпл: http://sendfile.su/1146169-Тип релиза: 720p [EbP]
Контейнер: MKV
Видео: 1280x694 (1,844:1), 25.000 fps, AVC, ~9978 kbps, 0.109 bits/pixel
Аудио 1: Русский, 48.0 KHz, AC3, 2 ch, 192 Kbps - Двухголосый закадровый | НТВ+
Аудио 2: Русский, 48.0 KHz, AC3, 1 ch, 128 Kbps - Многоголосый закадровый | Петербург - Пятый канал
Аудио 3: English, 48.0 KHz, FLAC, 2 ch, 308 kbps

MediaInfo

GeneralUnique ID : 201661108145804693059876715930123107888 (0x97B684451DC915C1BF70CC8B9715FE30)Complete name : E:\HD\Coming Home 1978 720p BluRay FLAC x264 EbP.mkvFormat : MatroskaFormat version : Version 4 / Version 2File size : 9.66 GiBDuration : 2h 7mnOverall bit rate mode : VariableOverall bit rate : 10.8 MbpsMovie name : Coming Home 1978 Release for rutracker.orgEncoded date : UTC 2015-08-15 13:44:54Writing application : mkvmerge v8.2.0 ('World of Adventure') 64bitWriting library : libebml v1.3.1 + libmatroska v1.4.2
VideoID : 1Format : AVCFormat/Info : Advanced Video CodecFormat profile : High@L4.1Format settings, CABAC : YesFormat settings, ReFrames : 9 framesCodec ID : V_MPEG4/ISO/AVCDuration : 2h 7mnWidth : 1 280 pixelsHeight : 694 pixelsDisplay aspect ratio : 1.85:1Frame rate mode : ConstantFrame rate : 23.976 fpsColor space : YUVChroma subsampling : 4:2:0Bit depth : 8 bitsScan type : ProgressiveTitle : Coming Home 1978 720p BluRay FLAC x264 EbPWriting library : x264 core 133 r2334 a3ac64bEncoding settings : cabac=1 / ref=9 / deblock=1:-3:-3 / analyse=0x3:0x133 / me=umh / subme=10 / psy=1 / psy_rd=1.15:0.00 /mixed_ref=1 / me_range=16 / chroma_me=1 / trellis=2 / 8x8dct=1 / cqm=0 / deadzone=21,11 / fast_pskip=0 / chroma_qp_offset=-2 /threads=12 / lookahead_threads=2 / sliced_threads=0 / nr=0 / decimate=0 / interlaced=0 / bluray_compat=0 / constrained_intra=0 /bframes=8 / b_pyramid=2 / b_adapt=2 / b_bias=0 / direct=3 / weightb=1 / open_gop=0 / weightp=2 / keyint=250 / keyint_min=23 /scenecut=40 / intra_refresh=0 / rc_lookahead=60 / rc=crf / mbtree=0 / crf=16.5 / qcomp=0.55 / qpmin=0 / qpmax=69 / qpstep=4 /vbv_maxrate=50000 / vbv_bufsize=62500 / crf_max=0.0 / nal_hrd=none / ip_ratio=1.10 / pb_ratio=1.10 / aq=1:0.60Language : EnglishDefault : YesForced : NoColor range : LimitedMatrix coefficients : BT.709
Audio #1ID : 2Format : AC-3Format/Info : Audio Coding 3Mode extension : CM (complete main)Format settings, Endianness : BigCodec ID : A_AC3Duration : 2h 7mnBit rate mode : ConstantBit rate : 192 KbpsChannel(s) : 2 channelsChannel positions : Front: L RSampling rate : 48.0 KHzCompression mode : LossyStream size : 176 MiB (2%)Title : Двухголосый закадровый | НТВ+Language : RussianDefault : YesForced : No
Audio #2ID : 3Format : AC-3Format/Info : Audio Coding 3Mode extension : CM (complete main)Format settings, Endianness : BigCodec ID : A_AC3Duration : 2h 7mnBit rate mode : ConstantBit rate : 128 KbpsChannel(s) : 1 channelChannel positions : Front: CSampling rate : 48.0 KHzCompression mode : LossyStream size : 117 MiB (1%)Title : Многоголосый закадровый | Петербург - Пятый каналLanguage : RussianDefault : NoForced : No
Audio #3ID : 4Format : FLACFormat/Info : Free Lossless Audio CodecCodec ID : A_FLACDuration : 2h 7mnBit rate mode : VariableChannel(s) : 2 channelsSampling rate : 48.0 KHzBit depth : 16 bitsTitle : Original | FLAC 2.0@308KbpsWriting library : libFLAC 1.2.1 (UTC 2007-09-17)Language : EnglishDefault : NoForced : No
Text #1ID : 5Format : UTF-8Codec ID : S_TEXT/UTF8Codec ID/Info : UTF-8 Plain TextLanguage : RussianDefault : NoForced : No
Text #2ID : 6Format : UTF-8Codec ID : S_TEXT/UTF8Codec ID/Info : UTF-8 Plain TextLanguage : EnglishDefault : NoForced : No
Menu00:00:00.000 : en:00:00:00.00000:17:23.626 : en:00:17:23.62600:35:14.321 : en:00:35:14.32100:57:44.670 : en:00:57:44.67001:12:40.356 : en:01:12:40.35601:29:20.021 : en:01:29:20.02101:46:30.926 : en:01:46:30.92601:59:45.178 : en:01:59:45.178

_________________
Показать сообщения:    

Текущее время: Сегодня 20:34

Часовой пояс: GMT



Вы не можете начинать темы
Вы не можете отвечать на сообщения
Вы не можете редактировать свои сообщения
Вы не можете удалять свои сообщения
Вы не можете голосовать в опросах
Вы не можете прикреплять файлы к сообщениям
Вы не можете скачивать файлы
Наши партнеры: интернет магазин Ивановского трикотажа textilla.ru