Ивановский Торрент трекер
Яндекс.Погода
 

[Цитировать]
HUNTER

ВОЗВРАЩЕНИЕ В СТРАНУ ОЗ
RETURN TO OZ
«Return to the land where the adventure began»
- Страна: Великобритания, США
Жанр: сказка, фэнтези, детектив, приключения, семейный
Год выпуска: 1985
Продолжительность: 01:49:48-Перевод 1: профессиональный (многоголосый закадровый)
Перевод 2: авторский (одноголосый закадровый) - Юрий Живов
Cубтитры: русские, английские
Оригинальная аудиодорожка: английский-Режиссер: Уолтер Мёрч / Walter Murch
В ролях: Файруза Балк, Никол Уильямсон, Джин Марш, Пайпер Лори, Мэтт Кларк, Майкл Сандин, Тимоти М. Роуз, Шон Баррет, Мак Уилсон, Денис Брайер-Описание: Дороти вернулась домой в Канзас, но не перестает думать о стране Оз. Ее тетя Эм, беспокоясь о здоровье девочки, отводит ее к известному доктору. Но Дороти убегает из клиники и вместе с курочкой Биллиной оказывается снова в стране Оз.
Она надеется найти своих друзей в Изумрудном Городе, но оказывается, что их всех похитил Король Ном, а злая ведьма Момби хочет заполучить голову Дороти. Теперь ей вместе с Биллиной, Тик-Током, Джеком Тыквоголовым и другими сказочными персонажами необходимо победить Момби и вернуть на престол законного короля.

-Доп. информация:
• Ремукс собран на основе американского трансфера.
За исходные аудиодорожки спасибо - Justin15.
За исходные русские сабы спасибо - Milena65.
За синхронизацию дорог и субтитров под BD спасибо мне.
У MVO дороги со вставками Живова была выровнена громкость вставок относительно самой дороги.
-СЭМПЛ
Качество: BDRemux 1080p
Контейнер: MKV
Видео: MPEG-4 AVC | 1920x1080 | 23.976 fps | ~20998 kbps
Аудио 1: AC-3 | 2.0 ch | 48.0 kHz | 16 bits | 192 kbps | MVO с тк "ОРТ" (+ вставки AVO Ю.Живов)
Аудио 2: AC-3 | 2.0 ch | 48.0 kHz | 16 bits | 192 kbps | AVO Юрий Живов
Аудио 3: DTS-HD MA | 5.1 ch | 48.0 kHz | 24 bits | 3933 kbps (DTS Core: 5.1 ch | 48.0 kHz | 24 bits | 1509 kbps) Eng
Субтитры: SRT | UTF-8 | Рус (по переводу Ю.Живова) + Eng + Eng SDH
Главы: есть, именованные

MediaInfo

Format : MatroskaFormat version : Version 4 / Version 2File size : 18.7 GiBDuration : 1h 49mnOverall bit rate mode : VariableOverall bit rate : 24.4 MbpsMovie name : 1985 Return To OzEncoded date : UTC 2015-04-09 10:48:12Writing application : mkvmerge v7.8.0 ('River Man') 64bit built on Mar 27 2015 16:31:37Writing library : libebml v1.3.1 + libmatroska v1.4.2Attachements : cover.jpgDURATION : 01:44:13.680000000NUMBER_OF_FRAMES : 1131NUMBER_OF_BYTES : 33304_STATISTICS_WRITING_APP : mkvmerge v7.8.0 ('River Man') 64bit built on Mar 27 2015 16:31:37_STATISTICS_WRITING_DATE_UTC : 2015-04-09 10:48:12_STATISTICS_TAGS : BPS DURATION NUMBER_OF_FRAMES NUMBER_OF_BYTES
VideoID : 1Format : AVCFormat/Info : Advanced Video CodecFormat profile : High@L4.1Format settings, CABAC : YesFormat settings, ReFrames : 4 framesCodec ID : V_MPEG4/ISO/AVCDuration : 1h 49mnBit rate mode : VariableMaximum bit rate : 30.0 MbpsWidth : 1 920 pixelsHeight : 1 080 pixelsDisplay aspect ratio : 16:9Frame rate mode : ConstantFrame rate : 23.976 fpsColor space : YUVChroma subsampling : 4:2:0Bit depth : 8 bitsScan type : ProgressiveLanguage : EnglishDefault : YesForced : NoDURATION : 01:49:48.207000000NUMBER_OF_FRAMES : 157959NUMBER_OF_BYTES : 16561023303_STATISTICS_WRITING_APP : mkvmerge v7.8.0 ('River Man') 64bit built on Mar 27 2015 16:31:37_STATISTICS_WRITING_DATE_UTC : 2015-04-09 10:48:12_STATISTICS_TAGS : BPS DURATION NUMBER_OF_FRAMES NUMBER_OF_BYTES
Audio #1ID : 2Format : AC-3Format/Info : Audio Coding 3Mode extension : CM (complete main)Format settings, Endianness : BigCodec ID : A_AC3Duration : 1h 49mnBit rate mode : ConstantBit rate : 192 KbpsChannel(s) : 2 channelsChannel positions : Front: L RSampling rate : 48.0 KHzBit depth : 16 bitsCompression mode : LossyStream size : 151 MiB (1%)Title : MVO "ОРТ" (+ вставки AVO Ю.Живов)Language : RussianDefault : YesForced : NoDURATION : 01:49:56.630000000NUMBER_OF_FRAMES : 618434NUMBER_OF_BYTES : 3239192228_STATISTICS_WRITING_APP : mkvmerge v7.8.0 ('River Man') 64bit built on Mar 27 2015 16:31:37_STATISTICS_WRITING_DATE_UTC : 2015-04-09 10:48:12_STATISTICS_TAGS : BPS DURATION NUMBER_OF_FRAMES NUMBER_OF_BYTES
Audio #2ID : 3Format : AC-3Format/Info : Audio Coding 3Mode extension : CM (complete main)Format settings, Endianness : BigCodec ID : A_AC3Duration : 1h 49mnBit rate mode : ConstantBit rate : 192 KbpsChannel(s) : 2 channelsChannel positions : Front: L RSampling rate : 48.0 KHzBit depth : 16 bitsCompression mode : LossyStream size : 151 MiB (1%)Title : AVO Юрий ЖивовLanguage : RussianDefault : NoForced : No
Audio #3ID : 4Format : DTSFormat/Info : Digital Theater SystemsFormat profile : MA / CoreMode : 16Format settings, Endianness : BigCodec ID : A_DTSDuration : 1h 49mnBit rate mode : VariableBit rate : Unknown / 1 509 KbpsChannel(s) : 6 channelsChannel positions : Front: L C R, Side: L R, LFESampling rate : 48.0 KHzBit depth : 24 bitsCompression mode : Lossless / LossyLanguage : EnglishDefault : NoForced : No
Text #1ID : 5Format : UTF-8Codec ID : S_TEXT/UTF8Codec ID/Info : UTF-8 Plain TextTitle : По переводу Ю.ЖивоваLanguage : RussianDefault : NoForced : No
Text #2ID : 6Format : UTF-8Codec ID : S_TEXT/UTF8Codec ID/Info : UTF-8 Plain TextLanguage : EnglishDefault : NoForced : No
Text #3ID : 7Format : UTF-8Codec ID : S_TEXT/UTF8Codec ID/Info : UTF-8 Plain TextTitle : SDHLanguage : EnglishDefault : NoForced : No
Menu00:00:00.000 : 1. Opening Credits / A Shooting Star00:09:19.725 : 2. Electrical Marvel00:19:15.070 : 3. "Run, Dorothy, Run!"00:28:38.883 : 4. The Yellow Brick Road00:40:39.228 : 5. Princess Mombi00:46:21.445 : 6. Jack Pumpkinhead00:54:17.379 : 7. Power Of Life01:04:40.376 : 8. Crash Landing01:12:35.392 : 9. Three Chances01:26:24.429 : 10. Scarecrow01:34:16.442 : 11. Emerald City01:45:06.925 : 12. End Credits

Скриншоты



Показать сообщения:    

Текущее время: 13-Дек 05:42

Часовой пояс: UTC ± 0


Вы не можете начинать темы
Вы не можете отвечать на сообщения
Вы не можете редактировать свои сообщения
Вы не можете удалять свои сообщения
Вы не можете голосовать в опросах
Вы не можете прикреплять файлы к сообщениям
Вы не можете скачивать файлы

!ВНИМАНИЕ!
Сайт не предоставляет электронные версии произведений, а занимается лишь коллекционированием и каталогизацией ссылок, присылаемых и публикуемых на форуме нашими читателями. Если вы являетесь правообладателем какого-либо представленного материала и не желаете, чтобы ссылка на него находилась в нашем каталоге, свяжитесь с нами, и мы незамедлительно удалим ее. Файлы для обмена на трекере предоставлены пользователями сайта, и администрация не несет ответственности за их содержание. Просьба не заливать файлы, защищенные авторскими правами, а также файлы нелегального содержания!