Важное объявление!
У Нас Все раздачи мультитрекерные, при нуле пиров в релизах, можете смело вставать на закачку!
 
Автор Сообщение

HUNTER

Стаж:
4 года 10 месяцев
Сообщений:
65511

Репутация: 101

[+] [-]
Вне форума [Профиль] [ЛС]

-Возвращение высокого блондина / The Return of the Tall Blond Man with One Black Shoe
Страна: Франция
Жанр: Комедия
Год выпуска: 1974
Продолжительность: 01:21:05-Перевод #1: Профессиональный (двухголосый, закадровый), Союз-Видео
Перевод #2: Профессиональный (полное дублирование), СССР**
Оригинальная аудиодорожка: французский
Cубтитры: английские
Режиссер: Ив Робер / Yves Robert
В ролях: Пьер Ришар, Жан Карме, Жан Рошфор, Мирей Дарк, Жан Буиз, Поль Ле Персон, Колетт Кастель, Анри Гибе, Эрве Санд, Жан Амос
Описание: Шпионские игры продолжаются. Спецслужбы не могут оставить Перрена в покое — новый министр нашёл досье на высокого блондина, заведённое Бернаром Миланом, и следуя подсказке капитана Камбрэ, подозревающего Тулуза в фарсе с высоким блондином и убийстве Милана, приказывает полковнику Тулузу представить ему «суперагента». Тот в смятении придумывает историю о том, что блондин совсем недавно погиб при выполнении спецоперации в тропиках, но министр требует привести тело на родину для захоронения с почестями. Тулуз посылает своих людей в Рио-де-Жанейро, где Перрен живёт с Кристин, чтобы убить его.
Блондин снова уходит от опасности, ни о чём не подозревая. Тогда Тулуз со своими агентами похищает Кристин, и теперь блондин вынужден выполнять его требования — приехать в Париж и разыграть из себя суперагента перед министром, что убедило бы его прекратить расследование убийства Милана. Министр намеревается послать «суперагента» на важное и очень опасное задание. Тулуз хочет избавиться от блондина, после того, как он сыграет свою роль, так как теперь он «слишком много знает». На помощь Перрену приходит его друг Морис…-
Сэмпл: скачать-Релиз от -
Автор рипа: Elheym
Качество: BDRip 1080p (источник: / Blu-Ray Remux / 1080p)
Контейнер: MKV
Видео: 1792x1080 (1,659:1), 24 fps, MPEG-4 AVC, ~17547 kbps avg, 0.378 bit/pixel
Аудио #1: Русский: АС3, 2.0, 48 kHz, ~192 Кбит/с | Профессиональный (двухголосый, закадровый), Союз-Видео |
Аудио #2: Русский: АС3, 2.0, 48 kHz, ~192 Кбит/с | Профессиональный (полное дублирование), СССР** |
Аудио #3: Украинский: АС3, 2.0, 48 kHz, ~192 Кбит/с | Профессиональный (двухголосый, закадровый), 2+2 |
Аудио #4: Французский: DTS, 2.0, 48 kHz, ~768 Кбит/с | Оригинал |
Субтитры: Английские (Полные)
Главы: Присутствуют, сохранены оригинальные
Размер: 10.6 GB
Цитата:
Цитата:

** - Основной перевод - Русский Дубляж (времен СССР). На места, где не было перевода в дубляже, наложены друхголосые вставки.

MediaInfo

Уникальный идентификатор : 233773901229716398364364453335203800679 (0xAFDF3735753BCCCEA53BA0C1D0F76667)
Полное имя : The.Return.of.the.Tall.Blond.Man.with.One.Black.Shoe.1974.1080p.BluRay.2xRus.Ukr.Fre.-HQCLUB.mkv
Формат : Matroska
Версия формата : Version 2
Размер файла : 10,7 Гбайт
Продолжительность : 1 ч. 21 м.
Общий поток : 18,9 Мбит/сек
Дата кодирования : UTC 2014-07-14 15:41:51
Программа кодирования : mkvmerge v5.2.0 ('I can't explain') built on Dec 18 2011 18:12:03
Библиотека кодирования : libebml v1.2.3 + libmatroska v1.3.0
Видео
Идентификатор : 1
Формат : AVC
Формат/Информация : Advanced Video Codec
Профиль формата : High@L4.1
Параметр CABAC формата : Да
Параметр ReFrames формата : 4 кадра
Идентификатор кодека : V_MPEG4/ISO/AVC
Продолжительность : 1 ч. 21 м.
Битрейт : 17,5 Мбит/сек
Ширина : 1792 пикселя
Высота : 1080 пикселей
Соотношение сторон : 1,659
Режим частоты кадров : Постоянный
Частота кадров : 24,000 кадра/сек
Цветовое пространство : YUV
Субдискретизация насыщенности : 4:2:0
Битовая глубина : 8 бит
Тип развёртки : Прогрессивная
Бит/(Пиксели*Кадры) : 0.378
Размер потока : 9,72 Гбайт (91%)
Заголовок : Возвращение высокого блондина / The Return of the Tall Blond Man with One Black Shoe / Le retour du grand blond (1974) BDRip 1080p by HQCLUB [Elheym]
Библиотека кодирования : x264 core 142 r2431 ac76440
Настройки программы : cabac=1 / ref=4 / deblock=1:-3:-2 / analyse=0x3:0x113 / me=umh / subme=11 / psy=1 / psy_rd=1.10:0.00 / mixed_ref=1 / me_range=32 / chroma_me=1 / trellis=2 / 8x8dct=1 / cqm=0 / deadzone=21,11 / fast_pskip=1 / chroma_qp_offset=-4 / threads=6 / lookahead_threads=1 / sliced_threads=0 / nr=0 / decimate=1 / interlaced=0 / bluray_compat=0 / constrained_intra=0 / bframes=9 / b_pyramid=2 / b_adapt=2 / b_bias=0 / direct=3 / weightb=1 / open_gop=0 / weightp=2 / keyint=240 / keyint_min=24 / scenecut=40 / intra_refresh=0 / rc_lookahead=40 / rc=2pass / mbtree=0 / bitrate=17547 / ratetol=1.0 / qcomp=0.60 / qpmin=10 / qpmax=69 / qpstep=4 / cplxblur=20.0 / qblur=0.5 / vbv_maxrate=50000 / vbv_bufsize=62500 / nal_hrd=none / filler=0 / ip_ratio=1.40 / pb_ratio=1.30 / aq=1:0.90
Язык : French
Default : Да
Forced : Нет
Аудио #1
Идентификатор : 2
Формат : AC-3
Формат/Информация : Audio Coding 3
Расширение режима : CM (complete main)
Параметр Endianness формата : Big
Идентификатор кодека : A_AC3
Продолжительность : 1 ч. 21 м.
Вид битрейта : Постоянный
Битрейт : 192 Кбит/сек
Каналы : 2 канала
Расположение каналов : Front: L R
Частота : 48,0 КГц
Битовая глубина : 16 бит
Метод сжатия : С потерями
Размер потока : 111 Мбайт (1%)
Заголовок : АС3 2.0 @ ~192 kbps - DVO, Inis
Язык : Russian
Default : Нет
Forced : Нет
Аудио #2
Идентификатор : 3
Формат : AC-3
Формат/Информация : Audio Coding 3
Расширение режима : CM (complete main)
Параметр Endianness формата : Big
Идентификатор кодека : A_AC3
Продолжительность : 1 ч. 21 м.
Вид битрейта : Постоянный
Битрейт : 192 Кбит/сек
Каналы : 2 канала
Расположение каналов : Front: L R
Частота : 48,0 КГц
Битовая глубина : 16 бит
Метод сжатия : С потерями
Размер потока : 111 Мбайт (1%)
Заголовок : АС3 2.0 @ ~192 kbps - Dub USSR
Язык : Russian
Default : Нет
Forced : Нет
Аудио #3
Идентификатор : 4
Формат : AC-3
Формат/Информация : Audio Coding 3
Расширение режима : CM (complete main)
Параметр Endianness формата : Big
Идентификатор кодека : A_AC3
Продолжительность : 1 ч. 21 м.
Вид битрейта : Постоянный
Битрейт : 192 Кбит/сек
Каналы : 2 канала
Расположение каналов : Front: L R
Частота : 48,0 КГц
Битовая глубина : 16 бит
Метод сжатия : С потерями
Размер потока : 111 Мбайт (1%)
Заголовок : АС3 2.0 @ ~192 kbps - DVO, 2+2
Язык : Ukrainian
Default : Нет
Forced : Нет
Аудио #4
Идентификатор : 5
Формат : DTS
Формат/Информация : Digital Theater Systems
Режим : 16
Параметр Endianness формата : Big
Идентификатор кодека : A_DTS
Продолжительность : 1 ч. 21 м.
Вид битрейта : Постоянный
Битрейт : 768 Кбит/сек
Каналы : 2 канала
Расположение каналов : Front: L R
Частота : 48,0 КГц
Битовая глубина : 16 бит
Метод сжатия : С потерями
Размер потока : 445 Мбайт (4%)
Заголовок : DTS 2.0 @ ~768 kbps - Original
Язык : French
Default : Нет
Forced : Нет
Текст
Идентификатор : 6
Формат : UTF-8
Идентификатор кодека : S_TEXT/UTF8
Идентификатор кодека/Информация : UTF-8 Plain Text
Заголовок : Full
Язык : English
Default : Нет
Forced : Нет
Меню
00:00:00.000 : :Chapter 01
00:06:21.375 : :Chapter 02
00:14:21.041 : :Chapter 03
00:20:19.250 : :Chapter 04
00:27:48.750 : :Chapter 05
00:34:48.291 : :Chapter 06
00:41:55.707 : :Chapter 07
00:48:22.791 : :Chapter 08
00:55:30.666 : :Chapter 09
01:03:56.875 : :Chapter 10
01:09:21.500 : :Chapter 11
01:15:07.416 : :Chapter 12
01:21:04.750 : :Chapter 13

x264 log

x264 [info]: frame I:824 Avg QP:14.36 size:210989
x264 [info]: frame P:23234 Avg QP:15.56 size:158596
x264 [info]: frame B:92703 Avg QP:17.62 size: 73453
x264 [info]: consecutive B-frames: 1.6% 2.2% 6.8% 9.2% 8.1% 65.4% 3.6% 0.4% 0.7% 2.0%
x264 [info]: ref P L0: 50.0% 10.3% 23.6% 14.9% 1.2% 0.0%
x264 [info]: ref B L0: 87.8% 9.0% 3.3%
x264 [info]: ref B L1: 95.4% 4.6%

Скриншоты

Сравнения

Source vs Encode





_________________
Показать сообщения:    

Текущее время: Сегодня 10:20

Часовой пояс: GMT



Вы не можете начинать темы
Вы не можете отвечать на сообщения
Вы не можете редактировать свои сообщения
Вы не можете удалять свои сообщения
Вы не можете голосовать в опросах
Вы не можете прикреплять файлы к сообщениям
Вы не можете скачивать файлы