Важное объявление!
У Нас Все раздачи мультитрекерные, при нуле пиров в релизах, можете смело вставать на закачку!
Статистика раздачи
Размер:     |    Зарегистрирован:     |    Скачан:     |   
Нет
 
     
 
 
Автор Сообщение

HUNTER

Стаж:
5 лет
Сообщений:
68065

Репутация: 101

[+] [-]
Вне форума [Профиль] [ЛС]

-Возвращение высокого блондина / The Return of the Tall Blond Man with One Black Shoe
Страна: Франция
Жанр: Комедия
Год выпуска: 1974
Продолжительность: 01:21:05-Перевод #1: Профессиональный (двухголосый, закадровый), Союз-Видео
Перевод #2: Профессиональный (полное дублирование), СССР**
Оригинальная аудиодорожка: французский
Cубтитры: английские
Режиссер: Ив Робер / Yves Robert
В ролях: Пьер Ришар, Жан Карме, Жан Рошфор, Мирей Дарк, Жан Буиз, Поль Ле Персон, Колетт Кастель, Анри Гибе, Эрве Санд, Жан Амос
Описание: Шпионские игры продолжаются. Спецслужбы не могут оставить Перрена в покое — новый министр нашёл досье на высокого блондина, заведённое Бернаром Миланом, и следуя подсказке капитана Камбрэ, подозревающего Тулуза в фарсе с высоким блондином и убийстве Милана, приказывает полковнику Тулузу представить ему «суперагента». Тот в смятении придумывает историю о том, что блондин совсем недавно погиб при выполнении спецоперации в тропиках, но министр требует привести тело на родину для захоронения с почестями. Тулуз посылает своих людей в Рио-де-Жанейро, где Перрен живёт с Кристин, чтобы убить его.
Блондин снова уходит от опасности, ни о чём не подозревая. Тогда Тулуз со своими агентами похищает Кристин, и теперь блондин вынужден выполнять его требования — приехать в Париж и разыграть из себя суперагента перед министром, что убедило бы его прекратить расследование убийства Милана. Министр намеревается послать «суперагента» на важное и очень опасное задание. Тулуз хочет избавиться от блондина, после того, как он сыграет свою роль, так как теперь он «слишком много знает». На помощь Перрену приходит его друг Морис…-
Сэмпл: скачать-Релиз от -
Автор рипа: Elheym
Качество: BDRip 720p (источник: / Blu-Ray Remux / 1080p)
Контейнер: MKV
Видео: 1280x772 (1,658:1), 24 fps, MPEG-4 AVC, ~7836 kbps avg, 0.330 bit/pixel
Аудио #1: Русский: АС3, 2.0, 48 kHz, ~192 Кбит/с | Профессиональный (двухголосый, закадровый), Союз-Видео |
Аудио #2: Русский: АС3, 2.0, 48 kHz, ~192 Кбит/с | Профессиональный (полное дублирование), СССР** |
Аудио #3: Украинский: АС3, 2.0, 48 kHz, ~192 Кбит/с | Профессиональный (двухголосый, закадровый), 2+2 |
Аудио #4: Французский: DTS, 2.0, 48 kHz, ~768 Кбит/с | Оригинал |
Субтитры: Английские (Полные)
Главы: Присутствуют, сохранены оригинальные
Размер: 5.19 GB
Цитата:
Цитата:

** - Основной перевод - Русский Дубляж (времен СССР). На места, где не было перевода в дубляже, наложены друхголосые вставки.
MediaInfo
Уникальный идентификатор : 176845629109579375868763660688340549211 (0x850B3AB1052B69078AF59A496FE7FE5B)
Полное имя : The.Return.of.the.Tall.Blond.Man.with.One.Black.Shoe.1974.720p.BluRay.2xRus.Ukr.Fre.-HQCLUB.mkv
Формат : Matroska
Версия формата : Version 2
Размер файла : 5,20 Гбайт
Продолжительность : 1 ч. 21 м.
Общий поток : 9181 Кбит/сек
Дата кодирования : UTC 2014-07-14 09:35:14
Программа кодирования : mkvmerge v5.2.0 ('I can't explain') built on Dec 18 2011 18:12:03
Библиотека кодирования : libebml v1.2.3 + libmatroska v1.3.0
Видео
Идентификатор : 1
Формат : AVC
Формат/Информация : Advanced Video Codec
Профиль формата : High@L4.1
Параметр CABAC формата : Да
Параметр ReFrames формата : 8 кадров
Идентификатор кодека : V_MPEG4/ISO/AVC
Продолжительность : 1 ч. 21 м.
Битрейт : 7836 Кбит/сек
Ширина : 1280 пикселей
Высота : 772 пикселя
Соотношение сторон : 1,658
Режим частоты кадров : Постоянный
Частота кадров : 24,000 кадра/сек
Цветовое пространство : YUV
Субдискретизация насыщенности : 4:2:0
Битовая глубина : 8 бит
Тип развёртки : Прогрессивная
Бит/(Пиксели*Кадры) : 0.330
Размер потока : 4,34 Гбайт (83%)
Заголовок : Возвращение высокого блондина / The Return of the Tall Blond Man with One Black Shoe / Le retour du grand blond (1974) BDRip 720p by HQCLUB [Elheym]
Библиотека кодирования : x264 core 142 r2431 ac76440
Настройки программы : cabac=1 / ref=8 / deblock=1:-3:-2 / analyse=0x3:0x113 / me=umh / subme=11 / psy=1 / psy_rd=1.05:0.00 / mixed_ref=1 / me_range=32 / chroma_me=1 / trellis=2 / 8x8dct=1 / cqm=0 / deadzone=21,11 / fast_pskip=1 / chroma_qp_offset=-4 / threads=6 / lookahead_threads=1 / sliced_threads=0 / nr=0 / decimate=1 / interlaced=0 / bluray_compat=0 / constrained_intra=0 / bframes=11 / b_pyramid=2 / b_adapt=2 / b_bias=0 / direct=3 / weightb=1 / open_gop=0 / weightp=2 / keyint=240 / keyint_min=24 / scenecut=40 / intra_refresh=0 / rc_lookahead=40 / rc=2pass / mbtree=0 / bitrate=7836 / ratetol=1.0 / qcomp=0.60 / qpmin=10 / qpmax=69 / qpstep=4 / cplxblur=20.0 / qblur=0.5 / vbv_maxrate=50000 / vbv_bufsize=62500 / nal_hrd=none / filler=0 / ip_ratio=1.40 / pb_ratio=1.30 / aq=1:0.90
Язык : French
Default : Да
Forced : Нет
Аудио #1
Идентификатор : 2
Формат : AC-3
Формат/Информация : Audio Coding 3
Расширение режима : CM (complete main)
Параметр Endianness формата : Big
Идентификатор кодека : A_AC3
Продолжительность : 1 ч. 21 м.
Вид битрейта : Постоянный
Битрейт : 192 Кбит/сек
Каналы : 2 канала
Расположение каналов : Front: L R
Частота : 48,0 КГц
Битовая глубина : 16 бит
Метод сжатия : С потерями
Размер потока : 111 Мбайт (2%)
Заголовок : АС3 2.0 @ ~192 kbps - DVO, Inis
Язык : Russian
Default : Нет
Forced : Нет
Аудио #2
Идентификатор : 3
Формат : AC-3
Формат/Информация : Audio Coding 3
Расширение режима : CM (complete main)
Параметр Endianness формата : Big
Идентификатор кодека : A_AC3
Продолжительность : 1 ч. 21 м.
Вид битрейта : Постоянный
Битрейт : 192 Кбит/сек
Каналы : 2 канала
Расположение каналов : Front: L R
Частота : 48,0 КГц
Битовая глубина : 16 бит
Метод сжатия : С потерями
Размер потока : 111 Мбайт (2%)
Заголовок : АС3 2.0 @ ~192 kbps - Dub USSR
Язык : Russian
Default : Нет
Forced : Нет
Аудио #3
Идентификатор : 4
Формат : AC-3
Формат/Информация : Audio Coding 3
Расширение режима : CM (complete main)
Параметр Endianness формата : Big
Идентификатор кодека : A_AC3
Продолжительность : 1 ч. 21 м.
Вид битрейта : Постоянный
Битрейт : 192 Кбит/сек
Каналы : 2 канала
Расположение каналов : Front: L R
Частота : 48,0 КГц
Битовая глубина : 16 бит
Метод сжатия : С потерями
Размер потока : 111 Мбайт (2%)
Заголовок : АС3 2.0 @ ~192 kbps - DVO, 2+2
Язык : Ukrainian
Default : Нет
Forced : Нет
Аудио #4
Идентификатор : 5
Формат : DTS
Формат/Информация : Digital Theater Systems
Режим : 16
Параметр Endianness формата : Big
Идентификатор кодека : A_DTS
Продолжительность : 1 ч. 21 м.
Вид битрейта : Постоянный
Битрейт : 768 Кбит/сек
Каналы : 2 канала
Расположение каналов : Front: L R
Частота : 48,0 КГц
Битовая глубина : 16 бит
Метод сжатия : С потерями
Размер потока : 445 Мбайт (8%)
Заголовок : DTS 2.0 @ ~768 kbps - Original
Язык : French
Default : Нет
Forced : Нет
Текст
Идентификатор : 6
Формат : UTF-8
Идентификатор кодека : S_TEXT/UTF8
Идентификатор кодека/Информация : UTF-8 Plain Text
Заголовок : Full
Язык : English
Default : Нет
Forced : Нет
Меню
00:00:00.000 : :Chapter 01
00:06:21.375 : :Chapter 02
00:14:21.041 : :Chapter 03
00:20:19.250 : :Chapter 04
00:27:48.750 : :Chapter 05
00:34:48.291 : :Chapter 06
00:41:55.707 : :Chapter 07
00:48:22.791 : :Chapter 08
00:55:30.666 : :Chapter 09
01:03:56.875 : :Chapter 10
01:09:21.500 : :Chapter 11
01:15:07.416 : :Chapter 12
01:21:04.750 : :Chapter 13
x264 log
x264 [info]: frame I:862 Avg QP:14.97 size:119131
x264 [info]: frame P:24323 Avg QP:16.35 size: 71991
x264 [info]: frame B:91576 Avg QP:18.02 size: 31778
x264 [info]: consecutive B-frames: 1.8% 2.6% 7.4% 15.2% 18.0% 42.6% 5.9% 1.5% 1.5% 0.9% 0.6% 2.0%
x264 [info]: ref P L0: 40.6% 9.8% 19.4% 8.4% 7.3% 5.5% 5.2% 3.4% 0.4% 0.0%
x264 [info]: ref B L0: 70.6% 13.0% 7.0% 3.9% 3.0% 1.7% 0.7%
x264 [info]: ref B L1: 92.8% 7.2%
Скриншоты

_________________
Показать сообщения:    

Текущее время: Сегодня 18:55

Часовой пояс: GMT



Вы не можете начинать темы
Вы не можете отвечать на сообщения
Вы не можете редактировать свои сообщения
Вы не можете удалять свои сообщения
Вы не можете голосовать в опросах
Вы не можете прикреплять файлы к сообщениям
Вы не можете скачивать файлы