Ивановский Торрент трекер
Яндекс.Погода
 

[Цитировать]
HUNTER

Возвращение высокого блондина / The Return of the Tall Blond Man with One Black Shoe / Le retour du grand blond Страна: Франция
Жанр: комедия
Год выпуска: 1974
Продолжительность: 01:19:34
Перевод 1: Профессиональный (двухголосый закадровый) студия Инис (с лицензионного диска Союз Видео)
Перевод 2: Профессиональный (дублированный)
Cубтитры: нет
Оригинальная аудиодорожка: французский
Режиссер: Ив Робер / Yves Robert
В ролях: Пьер Ришар, Жан Карме, Жан Рошфор, Мирей Дарк, Жан Буиз, Поль Ле Персон, Колетт Кастель, Анри Гибе, Эрве Санд, Жан Амос
Описание: Шпионские игры продолжаются. Спецслужбы не могут оставить Перрена в покое - новый министр нашёл досье на высокого блондина, заведённое Бернаром Миланом, и следуя подсказке капитана Камбрэ, подозревающего Тулуза в фарсе с высоким блондином и убийстве Милана, приказывает полковнику Тулузу представить ему «суперагента». Тот в смятении придумывает историю о том, что блондин совсем недавно погиб при выполнении спецоперации в тропиках, но министр требует привести тело на родину для захоронения с почестями. Тулуз посылает своих людей в Рио-де-Жанейро, где Перрен живёт с Кристин, чтобы убить его.
Блондин снова уходит от опасности, ни о чём не подозревая. Тогда Тулуз со своими агентами похищает Кристин, и теперь блондин вынужден выполнять его требования - приехать в Париж и разыграть из себя суперагента перед министром, что убедило бы его прекратить расследование убийства Милана. Министр намеревается послать «суперагента» на важное и очень опасное задание. Тулуз хочет избавиться от блондина, после того, как он сыграет свою роль, так как теперь он «слишком много знает». На помощь Перрену приходит его друг Морис...
Релиз от:
(с небольшим изменением - переименовал первую аудиодорожку [MVO Soyuz Video на DVO Inis])
Источник: iTunes (France)
Тип релиза: 720p WEB-DL
Контейнер: MKV
Видео: 1204x720 at 24.000 fps (True24p), MPEG-4 AVC, ~3900 kbps avg
Аудио#1: Russian: 48 kHz, AC3, 2/0 (L,R) ch, ~192.00 kbps avg |Двухголосый закадровый, студия Инис|
Аудио#2: Russian: 48 kHz, AC3, 2/0 (L,R) ch, ~192.00 kbps avg |Дубляж|
Аудио#3: French: 48 kHz, AAC, 2/0 (L,R) ch, ~160.00 kbps avg

MediaInfo

General
Unique ID : 240432689909285330394579849837724333994 (0xB4E1A6D68146CBA8A453CC11CFC877AA)
Complete name : D:\Релизы\Возвращение высокого блондина\Le.Retour.du.grand.blond.1974.720p.WEB-DL.2xRus.Fre..mkv
Format : Matroska
Format version : Version 4 / Version 2
File size : 2.45 GiB
Duration : 1h 19mn
Overall bit rate : 4 409 Kbps
Movie name : Le Grand blond avec une chaussure noire (1973)
Encoded date : UTC 2010-02-22 21:41:31
Writing application : mkvmerge v5.9.0 ('On The Loose') built on Dec 9 2012 15:37:01
Writing library : libebml v1.3.0 + libmatroska v1.4.0
Video
ID : 1
Format : AVC
Format/Info : Advanced Video Codec
Format profile : High@L3.1
Format settings, CABAC : No
Format settings, ReFrames : 2 frames
Codec ID : V_MPEG4/ISO/AVC
Duration : 1h 19mn
Width : 1 204 pixels
Height : 720 pixels
Display aspect ratio : 1.672
Frame rate mode : Constant
Frame rate : 24.000 fps
Color space : YUV
Chroma subsampling : 4:2:0
Bit depth : 8 bits
Scan type : Progressive
Title : Release by xamster for HDCLUB
Language : French
Default : Yes
Forced : No
Color primaries : BT.709
Transfer characteristics : BT.709
Matrix coefficients : BT.709
Audio #1
ID : 2
Format : AC-3
Format/Info : Audio Coding 3
Format profile : Dolby Digital
Mode extension : CM (complete main)
Format settings, Endianness : Big
Codec ID : A_AC3
Duration : 1h 19mn
Bit rate mode : Constant
Bit rate : 192 Kbps
Channel(s) : 2 channels
Channel positions : Front: L R
Sampling rate : 48.0 KHz
Bit depth : 16 bits
Compression mode : Lossy
Stream size : 109 MiB (4%)
Title : AC3 48kHz 2.0 192 kbps DVO Inis
Language : Russian
Default : Yes
Forced : No
Audio #2
ID : 3
Format : AC-3
Format/Info : Audio Coding 3
Format profile : Dolby Digital
Mode extension : CM (complete main)
Format settings, Endianness : Big
Codec ID : A_AC3
Duration : 1h 19mn
Bit rate mode : Constant
Bit rate : 192 Kbps
Channel(s) : 2 channels
Channel positions : Front: L R
Sampling rate : 48.0 KHz
Bit depth : 16 bits
Compression mode : Lossy
Stream size : 109 MiB (4%)
Title : AC3 48kHz 2.0 192 kbps Dub
Language : Russian
Default : No
Forced : No
Audio #3
ID : 4
Format : AAC
Format/Info : Advanced Audio Codec
Format profile : LC
Codec ID : A_AAC
Duration : 1h 19mn
Channel(s) : 2 channels
Channel positions : Front: L R
Sampling rate : 48.0 KHz
Compression mode : Lossy
Title : AAC 2.0 VBR Original
Language : French
Default : No
Forced : No
Menu
00:00:00.000 : en:GГ©nГ©rique dГ©but
00:02:12.000 : en:Comment l'aventure commence
00:03:59.000 : en:Capitaine Cambrai
00:05:45.000 : en:Le grand bouc
00:10:42.000 : en:Il faut supprimer le grand blond
00:12:45.000 : en:La baraka du grand blond
00:18:45.000 : en:Les fausses funГ©railles
00:23:11.000 : en:On l'a eu !
00:26:29.000 : en:Changement de programme
00:32:11.000 : en:Un petit service
00:34:51.000 : en:Le grand blond avec une chaussure rouge
00:40:02.000 : en:Une mission dangereuse
00:42:11.000 : en:Notre hГ©ros est fatiguГ©
00:45:52.000 : en:Cambrai a peur du sang
00:48:26.000 : en:RГ©union de routine entre agents secrets
00:55:31.000 : en:Le Super-Agent
01:04:29.000 : en:Une suite imprГ©vue
01:08:47.000 : en:Couche-toi sur Paulette !
01:12:52.000 : en:Toulouse est demasquГ©
01:18:34.000 : en:GГ©nГ©rique de fin

Скриншоты

Предыдущий фильм: Высокий блондин в черном ботинке
Показать сообщения:    

Текущее время: 20-Окт 22:07

Часовой пояс: UTC - 1


Вы не можете начинать темы
Вы не можете отвечать на сообщения
Вы не можете редактировать свои сообщения
Вы не можете удалять свои сообщения
Вы не можете голосовать в опросах
Вы не можете прикреплять файлы к сообщениям
Вы не можете скачивать файлы

!ВНИМАНИЕ!
Сайт не предоставляет электронные версии произведений, а занимается лишь коллекционированием и каталогизацией ссылок, присылаемых и публикуемых на форуме нашими читателями. Если вы являетесь правообладателем какого-либо представленного материала и не желаете, чтобы ссылка на него находилась в нашем каталоге, свяжитесь с нами, и мы незамедлительно удалим ее. Файлы для обмена на трекере предоставлены пользователями сайта, и администрация не несет ответственности за их содержание. Просьба не заливать файлы, защищенные авторскими правами, а также файлы нелегального содержания!